<?xml version="1.0" standalone="no"?>
<!DOCTYPE svg PUBLIC "-//W3C//DTD SVG 1.1//EN" "http://www.w3.org/Graphics/SVG/1.1/DTD/svg11.dtd" >
<svg xmlns="http://www.w3.org/2000/svg" xmlns:xlink="http://www.w3.org/1999/xlink" version="1.1">
<metadata>
Created by FontForge 20170731 at Thu May 15 14:19:02 2003
 By ,,,
Copyright (c) 1990, 1991, 1998, 2002 Adobe Systems Incorporated.  All Rights Reserved.  (c) Copyright 1989, 1990, 1998, 2002 The Monotype Corporation PLC. All Rights Reserved.
</metadata>
<defs>
<font id="GillSansStd-BoldItalic" horiz-adv-x="552" >
  <font-face 
    font-family="Gill Sans Std"
    font-weight="700"
    font-style="italic"
    font-stretch="normal"
    units-per-em="1000"
    panose-1="2 11 8 2 2 1 4 9 2 3"
    ascent="682"
    descent="-318"
    x-height="454"
    cap-height="682"
    bbox="-190 -250 1074 915"
    underline-thickness="50"
    underline-position="-200"
    slope="-8"
    unicode-range="U+0020-FB02"
  />
<missing-glyph horiz-adv-x="562" 
d="M62 0v700h500v-700h-500zM312 395l170 255h-340zM342 350l170 -255v510zM142 50h340l-170 255zM112 605v-510l170 255z" />
    <glyph glyph-name="f_i" unicode="fi" horiz-adv-x="583" 
d="M345 454l-14 -100h-82l-77 -553h-135l77 553h-77l14 100h78q10 121 77 179t160 58q79 0 140 -48t55 -135h-135q-9 65 -68 65q-39 0 -64.5 -32t-30.5 -87h82zM553 454l-64 -454h-135l64 454h135z" />
    <glyph glyph-name="f_l" unicode="fl" horiz-adv-x="583" 
d="M346 454l-14 -100h-83l-78 -553h-134l77 553h-77l14 100h77q11 69 26 106.5t46 68.5q38 38 99.5 54.5t114.5 -1.5l-16 -113q-21 12 -39 12q-36 0 -63.5 -32.5t-32.5 -94.5h83zM585 682l-96 -682h-135l96 682h135z" />
    <glyph glyph-name=".notdef" horiz-adv-x="562" 
d="M62 0v700h500v-700h-500zM312 395l170 255h-340zM342 350l170 -255v510zM142 50h340l-170 255zM112 605v-510l170 255z" />
    <glyph glyph-name=".null" horiz-adv-x="0" 
 />
    <glyph glyph-name="nonmarkingreturn" horiz-adv-x="333" 
 />
    <glyph glyph-name="space" unicode=" " horiz-adv-x="278" 
 />
    <glyph glyph-name="exclam" unicode="!" horiz-adv-x="260" 
d="M159 213h-80l17 304q6 121 38 153q21 21 51 21t47 -19.5t17 -53.5q0 -44 -18 -116zM101 160q35 0 59.5 -25t24.5 -59t-24.5 -59t-59.5 -25t-59.5 25t-24.5 59t24.5 59t59.5 25z" />
    <glyph glyph-name="quotedbl" unicode="&#x22;" horiz-adv-x="479" 
d="M461 595l-24 -134h-87l-24 134v121h135v-121zM88 595v121h135v-121l-24 -134h-87z" />
    <glyph glyph-name="numbersign" unicode="#" horiz-adv-x="584" 
d="M-6 452h145l38 179h113l-38 -179h154l38 179h111l-38 -179h74v-111h-96l-27 -131h123v-111h-147l-38 -179h-111l37 179h-153l-37 -179h-114l38 179h-72v111h95l27 131h-122v111zM229 341l-27 -131h153l27 131h-153z" />
    <glyph glyph-name="dollar" unicode="$" horiz-adv-x="490" 
d="M473 594l-14 -99q-60 38 -129 56l-25 -178q76 -44 107.5 -86t31.5 -98q0 -75 -53 -132t-140 -66l-16 -114h-78l16 118q-82 14 -160 58l18 101q79 -51 156 -62l27 194q-72 39 -105.5 81t-33.5 101q0 71 50 123t141 63l5 37h78l-6 -43q74 -17 130 -54zM233 417l19 137
q-66 -20 -66 -71q0 -34 47 -66zM286 242l-20 -147q66 24 66 79q0 42 -46 68z" />
    <glyph glyph-name="percent" unicode="%" horiz-adv-x="719" 
d="M269 530q0 31 -21 53t-50 22q-30 0 -50.5 -21.5t-20.5 -53.5q0 -30 21 -52.5t50 -22.5q30 0 50.5 21.5t20.5 53.5zM359 530q0 -66 -47 -113.5t-114 -47.5t-114 47.5t-47 113.5q0 67 47 114t114 47t114 -47t47 -114zM651 691l-477 -699h-83l480 699h80zM707 152
q0 -66 -47 -113.5t-114 -47.5t-114 47.5t-47 113.5q0 67 47 114t114 47t114 -47t47 -114zM617 152q0 31 -21 53t-50 22q-30 0 -50.5 -21.5t-20.5 -53.5q0 -30 21 -52.5t50 -22.5q30 0 50.5 21.5t20.5 53.5z" />
    <glyph glyph-name="ampersand" unicode="&#x26;" horiz-adv-x="729" 
d="M556 306h132q-37 -94 -113 -172q40 -17 89 -17h42l-46 -117q-36 -17 -99.5 -4.5t-111.5 49.5q-94 -54 -193 -54q-104 0 -172.5 59t-68.5 148q0 85 64 147.5t192 80.5q-9 127 54 196t169 69q74 0 121 -40.5t47 -104.5q0 -151 -242 -193q24 -88 63 -148q51 43 73 101z
M554 548q0 26 -19 43t-49 17q-41 0 -64.5 -28.5t-23.5 -79.5q0 -27 6 -51q85 17 117.5 41.5t32.5 57.5zM165 210q0 -49 33 -80t84 -31q42 0 89 23q-61 98 -83 202q-58 -10 -90.5 -40t-32.5 -74z" />
    <glyph glyph-name="quotesingle" unicode="'" horiz-adv-x="240" 
d="M218 595l-24 -134h-87l-24 134v121h135v-121z" />
    <glyph glyph-name="parenleft" unicode="(" horiz-adv-x="344" 
d="M275 691h102q-89 -112 -141 -267t-52 -312q0 -191 64 -342h-103q-101 220 -101 383q0 263 231 538z" />
    <glyph glyph-name="parenright" unicode=")" horiz-adv-x="344" 
d="M65 -230h-102q89 112 141 267t52 312q0 191 -64 342h103q101 -220 101 -383q0 -264 -231 -538z" />
    <glyph glyph-name="asterisk" unicode="*" horiz-adv-x="479" 
d="M324 301q11 -37 -26 -37h-61q-20 0 -27 8t-1 29l44 142l-12 11l-99 -102q-20 -20 -29.5 -22t-20.5 16l-28 53q-19 36 15 44l152 33v2l-152 34q-33 8 -17 40l30 57q7 13 11.5 16t13.5 -1.5t25 -20.5l99 -102l12 11l-44 142q-12 37 28 37h58q22 0 28.5 -8.5t0.5 -28.5
l-44 -142l12 -11l99 102q22 22 30 23t20 -20l25 -45q22 -40 -12 -49l-152 -34v-2l152 -33q36 -8 14 -46l-26 -47q-8 -14 -13.5 -18.5t-12 -1.5t-17.5 14l-107 110l-12 -11z" />
    <glyph glyph-name="plus" unicode="+" horiz-adv-x="584" 
d="M55 289v128h186v186h128v-186h186v-128h-186v-186h-128v186h-186z" />
    <glyph glyph-name="comma" unicode="," horiz-adv-x="260" 
d="M-45 -145l15 61q64 15 86 72q-48 27 -48 76q0 34 24 57t60 23q40 0 68 -31t28 -74q0 -72 -64 -128t-169 -56z" />
    <glyph glyph-name="hyphen" unicode="-" horiz-adv-x="344" 
d="M338 294l-20 -138h-312l19 138h313z" />
    <glyph glyph-name="period" unicode="." horiz-adv-x="260" 
d="M95 160q35 0 59.5 -25t24.5 -59t-24.5 -59t-59.5 -25t-59.5 25t-24.5 59t24.5 59t59.5 25z" />
    <glyph glyph-name="slash" unicode="/" horiz-adv-x="281" 
d="M18 -9l169 700h103l-171 -700h-101z" />
    <glyph glyph-name="zero" unicode="0" horiz-adv-x="531" 
d="M506 434q0 -69 -16.5 -144t-48 -143t-85.5 -112t-119 -44q-86 0 -135.5 68.5t-49.5 188.5q0 73 16.5 148.5t48 142.5t84.5 109.5t119 42.5q87 0 136.5 -68t49.5 -189zM364 474q0 46 -15.5 68t-37.5 22q-41 0 -69.5 -73t-38 -148.5t-9.5 -131.5q0 -93 54 -93q39 0 67.5 80
t38.5 157t10 119z" />
    <glyph glyph-name="one" unicode="1" horiz-adv-x="531" 
d="M399 682l-96 -682h-141l96 682h141z" />
    <glyph glyph-name="two" unicode="2" horiz-adv-x="531" 
d="M440 139l-19 -139h-392v22q172 226 233.5 325t61.5 149q0 29 -21 48.5t-52 19.5q-48 0 -145 -62l19 137q68 52 152 52q86 0 137.5 -52.5t51.5 -129.5q0 -71 -40 -141.5t-156 -228.5h170z" />
    <glyph glyph-name="three" unicode="3" horiz-adv-x="531" 
d="M103 519l19 135q83 37 162 37q91 0 148.5 -49.5t57.5 -128.5q0 -61 -29.5 -104t-84.5 -61q79 -41 79 -143q0 -95 -70.5 -154.5t-183.5 -59.5q-79 0 -172 43l18 130q88 -46 150 -46q46 0 78 26.5t32 64.5t-30.5 61t-80.5 23q-23 0 -52 -5l18 130q47 -11 77 -11q47 0 78 24
t31 60q0 32 -23.5 52.5t-60.5 20.5q-59 0 -161 -45z" />
    <glyph glyph-name="four" unicode="4" horiz-adv-x="531" 
d="M478 691l-62 -441h74l-13 -93h-74l-22 -157h-141l22 157h-233v114l336 420h113zM305 476l-181 -226h151l32 224z" />
    <glyph glyph-name="five" unicode="5" horiz-adv-x="531" 
d="M486 682l-20 -139h-179l-16 -112q97 -11 141.5 -66t44.5 -135q0 -107 -71 -173t-186 -66q-99 0 -177 51l40 127q42 -29 71.5 -40t63.5 -11q51 0 84 28.5t33 72.5q0 46 -35 73t-95 27q-37 0 -77 -6l62 369h316z" />
    <glyph glyph-name="six" unicode="6" horiz-adv-x="531" 
d="M449 682l-172 -266l2 -2q30 12 66 12q68 0 110.5 -49t42.5 -127q0 -109 -71 -184t-175 -75q-94 0 -151 58.5t-57 154.5q0 57 21 112.5t71 131.5l154 234h159zM356 240q0 32 -18 51t-47 19q-43 0 -74 -34.5t-31 -82.5q0 -33 19 -54t50 -21q40 0 70.5 36.5t30.5 85.5z" />
    <glyph glyph-name="seven" unicode="7" horiz-adv-x="531" 
d="M520 682l-269 -682h-149l215 543h-224l27 139h400z" />
    <glyph glyph-name="eight" unicode="8" horiz-adv-x="531" 
d="M379 352q46 -20 72 -60.5t26 -91.5q0 -88 -65.5 -148.5t-160.5 -60.5q-92 0 -151.5 53.5t-59.5 136.5q0 58 35.5 115.5t102.5 71.5q-67 48 -67 129t61.5 137.5t150.5 56.5q79 0 130.5 -47t51.5 -118q0 -53 -31.5 -99.5t-94.5 -74.5zM363 511q0 23 -14 38t-36 15
q-31 0 -49.5 -29.5t-18.5 -66.5q0 -22 13.5 -36t36.5 -14q33 0 50.5 28.5t17.5 64.5zM335 219q0 32 -19 52t-49 20q-35 0 -60 -29.5t-25 -71.5q0 -32 18.5 -52t48.5 -20q36 0 61 29t25 72z" />
    <glyph glyph-name="nine" unicode="9" horiz-adv-x="531" 
d="M107 0l173 268l-2 2q-35 -13 -65 -13q-68 0 -111.5 49.5t-43.5 125.5q0 62 26 119.5t84 98.5t136 41q95 0 151 -58t56 -156q0 -105 -85 -233l-161 -244h-158zM369 491q0 31 -20 52t-50 21q-39 0 -69 -37.5t-30 -85.5q0 -30 18.5 -48t49.5 -18q48 0 74.5 37.5t26.5 78.5z
" />
    <glyph glyph-name="colon" unicode=":" horiz-adv-x="260" 
d="M149 462q35 0 59.5 -25t24.5 -59t-24.5 -59t-59.5 -25t-59.5 25t-24.5 59t24.5 59t59.5 25zM95 160q35 0 59.5 -25t24.5 -59t-24.5 -59t-59.5 -25t-59.5 25t-24.5 59t24.5 59t59.5 25z" />
    <glyph glyph-name="semicolon" unicode=";" horiz-adv-x="260" 
d="M-45 -145l15 61q64 15 86 72q-48 27 -48 76q0 34 24 57t60 23q40 0 68 -31t28 -74q0 -72 -64 -128t-169 -56zM149 462q35 0 59.5 -25t24.5 -59t-24.5 -59t-59.5 -25t-59.5 25t-24.5 59t24.5 59t59.5 25z" />
    <glyph glyph-name="less" unicode="&#x3c;" horiz-adv-x="584" 
d="M60 295v120l491 213v-137l-343 -136l343 -136v-137z" />
    <glyph glyph-name="equal" unicode="=" horiz-adv-x="584" 
d="M55 180v128h500v-128h-500zM55 398v128h500v-128h-500z" />
    <glyph glyph-name="greater" unicode="&#x3e;" horiz-adv-x="584" 
d="M550 295l-491 -213v137l343 136l-343 136v137l491 -213v-120z" />
    <glyph glyph-name="question" unicode="?" horiz-adv-x="323" 
d="M178 216h-106q1 44 17 84t38.5 68t44.5 52t37.5 47.5t15.5 44.5t-16 34.5t-41 13.5q-49 0 -130 -48l19 132q75 47 144 47q70 0 117 -46.5t47 -114.5q0 -45 -17 -81t-42 -61t-51.5 -48.5t-48 -55t-28.5 -68.5zM121 160q35 0 59.5 -25t24.5 -59t-24.5 -59t-59.5 -25
t-59.5 25t-24.5 59t24.5 59t59.5 25z" />
    <glyph glyph-name="at" unicode="@" horiz-adv-x="979" 
d="M878 9h104q-53 -106 -163.5 -162.5t-265.5 -56.5q-72 0 -142 14.5t-138 48t-119 83t-82.5 125.5t-31.5 169q0 67 16 134t54 133.5t94 117t143 82t194 31.5q185 0 300 -103.5t115 -269.5q0 -89 -39.5 -169.5t-115 -133t-168.5 -52.5q-75 0 -89 56q-56 -56 -132 -56
q-83 0 -135.5 57t-52.5 148q0 54 17.5 109.5t49 104t83 79.5t112.5 31q90 0 131 -66l12 54h129l-78 -370q-9 -47 16 -47q47 0 109.5 78.5t62.5 178.5q0 50 -17.5 97t-54 90t-104.5 69.5t-159 26.5q-86 0 -156.5 -25.5t-116 -67t-76 -96t-43.5 -109.5t-13 -111
q0 -88 33.5 -157t91.5 -111t131 -63.5t157 -21.5q233 0 337 131zM350 203q0 -52 24 -83t64 -31t71.5 27.5t48 68t24.5 77.5t8 65q0 52 -25 83t-66 31q-69 0 -109 -75t-40 -163z" />
    <glyph glyph-name="A" unicode="A" horiz-adv-x="625" 
d="M461 691l120 -691h-149l-21 149h-212l-66 -149h-160l334 691h154zM361 548l-120 -302h158l-36 302h-2z" />
    <glyph glyph-name="B" unicode="B" horiz-adv-x="635" 
d="M140 682h217q121 0 174 -48t53 -117q0 -102 -99 -152q59 -17 93 -63t34 -104q0 -33 -13.5 -66.5t-40.5 -63.5t-74 -49t-106 -19h-334zM270 568l-23 -150h98q49 0 73 23t24 58q0 69 -96 69h-76zM232 304l-29 -190h138q63 0 92 28.5t29 71.5q0 45 -35.5 67.5t-91.5 22.5
h-103z" />
    <glyph glyph-name="C" unicode="C" horiz-adv-x="688" 
d="M688 666l-24 -126q-81 25 -165 25q-78 0 -137 -26t-91 -67.5t-47.5 -85t-15.5 -86.5q0 -84 52.5 -133.5t142.5 -49.5q108 0 248 80l-21 -152q-123 -54 -240 -54q-148 0 -240 86t-92 226q0 172 124 280t321 108q85 0 185 -25z" />
    <glyph glyph-name="D" unicode="D" horiz-adv-x="750" 
d="M136 682h227q97 0 169 -30.5t110 -81t55.5 -105.5t17.5 -115q0 -151 -92.5 -250.5t-229.5 -99.5h-352zM265 568l-63 -454h136q113 0 170 70t57 168q0 94 -60.5 155t-169.5 61h-70z" />
    <glyph glyph-name="E" unicode="E" horiz-adv-x="583" 
d="M564 682l-16 -114h-281l-23 -161h247l-16 -114h-247l-25 -179h354l-16 -114h-499l96 682h426z" />
    <glyph glyph-name="F" unicode="F" horiz-adv-x="490" 
d="M531 682l-17 -114h-247l-22 -162h213l-16 -114h-213l-42 -292h-145l96 682h393z" />
    <glyph glyph-name="G" unicode="G" horiz-adv-x="740" 
d="M737 666l-17 -126q-93 25 -181 25q-151 0 -246 -72.5t-95 -188.5q0 -91 60.5 -139t156.5 -48q50 0 102 13l17 121h-125l15 108h270l-49 -348q-71 -20 -212 -20q-102 0 -179 26.5t-120.5 72t-64.5 98t-21 111.5q0 68 27.5 134.5t83 125.5t154 95.5t226.5 36.5
q114 0 198 -25z" />
    <glyph glyph-name="H" unicode="H" horiz-adv-x="792" 
d="M777 682l-96 -682h-145l40 278h-348l-39 -278h-145l96 682h145l-38 -270h347l38 270h145z" />
    <glyph glyph-name="I" unicode="I" horiz-adv-x="302" 
d="M286 682l-96 -682h-145l96 682h145z" />
    <glyph glyph-name="J" unicode="J" horiz-adv-x="302" 
d="M288 682l-101 -717q-16 -112 -82.5 -159t-186.5 -33l16 113q53 1 78 24t34 84l97 688h145z" />
    <glyph glyph-name="K" unicode="K" horiz-adv-x="646" 
d="M704 682l-306 -308l265 -374h-168l-257 362l-51 -362h-145l96 682h145l-41 -291l2 -2l288 293h172z" />
    <glyph glyph-name="L" unicode="L" horiz-adv-x="531" 
d="M281 682l-80 -568h310l-16 -114h-455l96 682h145z" />
    <glyph glyph-name="M" unicode="M" horiz-adv-x="948" 
d="M862 682l32 -682h-140l-21 461h-2l-253 -461h-69l-120 474h-2l-154 -474h-146l222 682h159l110 -429l230 429h154z" />
    <glyph glyph-name="N" unicode="N" horiz-adv-x="781" 
d="M767 682l-95 -682h-138l-280 462h-2l-64 -462h-145l96 682h145l275 -445h2l61 445h145z" />
    <glyph glyph-name="O" unicode="O" horiz-adv-x="833" 
d="M797 380q0 -174 -110.5 -281.5t-282.5 -107.5q-149 0 -246.5 89t-97.5 228q0 166 114 274.5t287 108.5q149 0 242.5 -87t93.5 -224zM647 370q0 85 -55.5 140t-140.5 55q-99 0 -170 -73.5t-71 -176.5q0 -88 54.5 -143t140.5 -55q101 0 171.5 73.5t70.5 179.5z" />
    <glyph glyph-name="P" unicode="P" horiz-adv-x="583" 
d="M141 682h223q97 0 161 -52.5t64 -150.5q0 -61 -21.5 -106t-58.5 -69.5t-78.5 -35.5t-88.5 -11h-115l-36 -257h-145zM271 574l-29 -210h61q68 0 102 30.5t34 78.5q0 45 -33 73t-100 28h-35z" />
    <glyph glyph-name="Q" unicode="Q" horiz-adv-x="833" 
d="M693 -94l-115 -114q-181 42 -324 226q-32 17 -52 29.5t-50 38.5t-47.5 53.5t-31 72t-13.5 96.5q0 166 114.5 274.5t287.5 108.5q151 0 243 -86t92 -228q0 -137 -83.5 -245.5t-240.5 -132.5q33 -41 95 -68.5t104 -11.5zM647 368q0 81 -52.5 139t-142.5 58
q-101 0 -171.5 -73.5t-70.5 -179.5q0 -87 54 -141t140 -54q104 0 173.5 74.5t69.5 176.5z" />
    <glyph glyph-name="R" unicode="R" horiz-adv-x="646" 
d="M138 682h234q62 0 108.5 -20t72 -51.5t37.5 -65.5t12 -68q0 -66 -38.5 -115t-113.5 -63v-2q26 -11 41 -29t31 -51l105 -217h-160l-65 138q-43 92 -67.5 115t-77.5 23h-31l-38 -276h-145zM267 568l-26 -186h72q69 0 104 29t35 70t-30 64t-84 23h-71z" />
    <glyph glyph-name="S" unicode="S" horiz-adv-x="521" 
d="M509 637l-20 -120q-34 25 -82.5 42.5t-86.5 17.5q-41 0 -68.5 -21t-27.5 -54q0 -26 26 -49.5t63 -44.5t73.5 -46.5t62.5 -67t26 -94.5q0 -88 -61 -148.5t-170 -60.5q-133 0 -232 65l22 119q42 -30 96.5 -50t96.5 -20q44 0 71 20.5t27 54.5q0 31 -26 57.5t-63 48
t-73.5 46.5t-62.5 64t-26 89q0 89 68.5 147.5t171.5 58.5q104 0 195 -54z" />
    <glyph glyph-name="T" unicode="T" horiz-adv-x="619" 
d="M666 682l-16 -114h-222l-80 -568h-145l80 568h-216l16 114h583z" />
    <glyph glyph-name="U" unicode="U" horiz-adv-x="750" 
d="M744 682l-60 -425q-37 -266 -314 -266q-169 0 -243.5 83.5t-54.5 219.5l56 388h145l-55 -386q-8 -54 5 -92t40.5 -55.5t53.5 -24.5t53 -7q65 0 112.5 36.5t58.5 115.5l58 413h145z" />
    <glyph glyph-name="V" unicode="V" 
d="M609 682l-333 -691h-71l-142 691h138l74 -401h2l183 401h149z" />
    <glyph glyph-name="W" unicode="W" horiz-adv-x="948" 
d="M998 682l-336 -691h-59l-110 422l-230 -422h-60l-139 691h137l72 -401h2l217 401h71l102 -401h2l184 401h147z" />
    <glyph glyph-name="X" unicode="X" horiz-adv-x="677" 
d="M742 682l-302 -347l202 -335h-159l-137 227l-203 -227h-180l309 350l-200 332h159l136 -224l195 224h180z" />
    <glyph glyph-name="Y" unicode="Y" horiz-adv-x="563" 
d="M618 682l-257 -396l-40 -286h-145l40 286l-144 396h145l88 -263l158 263h155z" />
    <glyph glyph-name="Z" unicode="Z" horiz-adv-x="635" 
d="M699 682l-455 -568h339l-16 -114h-598l456 568h-331l17 114h588z" />
    <glyph glyph-name="bracketleft" unicode="[" horiz-adv-x="375" 
d="M418 682l-16 -114h-130l-94 -675h129l-16 -114h-260l127 903h260z" />
    <glyph glyph-name="backslash" unicode="\" horiz-adv-x="281" 
d="M290 -9h-101l-171 700h103z" />
    <glyph glyph-name="bracketright" unicode="]" horiz-adv-x="375" 
d="M-47 -221l16 114h130l94 675h-129l16 114h260l-127 -903h-260z" />
    <glyph glyph-name="asciicircum" unicode="^" horiz-adv-x="583" 
d="M68 292l184 390h108l179 -390h-139l-96 239l-96 -239h-140z" />
    <glyph glyph-name="underscore" unicode="_" horiz-adv-x="500" 
d="M-6 -75h512v-50h-512v50z" />
    <glyph glyph-name="grave" unicode="`" horiz-adv-x="333" 
d="M301 504h-73l-177 172h161z" />
    <glyph glyph-name="a" unicode="a" 
d="M521 447l-63 -447h-135l6 42q-64 -51 -131 -51q-69 0 -114 55t-45 140q0 52 17.5 99t54.5 88t103 65t154 24q77 0 153 -15zM342 132l30 216q-48 5 -84.5 -6t-56.5 -29.5t-32.5 -45t-16 -47.5t-3.5 -41q0 -41 17.5 -64t48.5 -23q49 0 97 40z" />
    <glyph glyph-name="b" unicode="b" horiz-adv-x="542" 
d="M261 682l-39 -274q63 54 123 54q73 0 121 -58t48 -146q0 -50 -17 -96t-51 -85t-92 -62.5t-132 -23.5q-110 0 -191 15l95 676h135zM207 298l-28 -194q99 -14 146.5 26t47.5 122q0 46 -21 73t-56 27q-44 0 -89 -54z" />
    <glyph glyph-name="c" unicode="c" horiz-adv-x="469" 
d="M451 446l-17 -122q-36 13 -56 18q-14 2 -42 2q-68 0 -114.5 -40t-46.5 -99q0 -50 31 -77t87 -27q53 0 129 30l-16 -123q-66 -17 -140 -17q-102 0 -166.5 61t-64.5 158q0 107 84 179.5t207 72.5q75 0 125 -16z" />
    <glyph glyph-name="d" unicode="d" horiz-adv-x="542" 
d="M548 682l-95 -676q-87 -15 -156 -15q-121 0 -192 59t-71 159q0 101 74 177t208 76q18 0 66 -5l31 225h135zM332 106l33 236q-90 11 -140.5 -30.5t-50.5 -103.5q0 -50 32.5 -78.5t88.5 -28.5q14 0 37 5z" />
    <glyph glyph-name="e" unicode="e" horiz-adv-x="510" 
d="M468 208h-297q-5 -54 24.5 -85.5t79.5 -31.5q55 0 168 46l-24 -113q-88 -33 -158 -33q-103 0 -164.5 60t-61.5 161q0 104 71.5 177t174.5 73q106 0 158.5 -72.5t28.5 -181.5zM184 286h159q6 37 -12 60t-53 23q-65 0 -94 -83z" />
    <glyph glyph-name="f" unicode="f" horiz-adv-x="333" 
d="M456 668l-15 -109q-44 22 -76 22q-89 0 -98 -127h87l-14 -100h-88l-78 -553h-135l78 553h-92l14 100h93q13 119 72 178t143 59q51 0 109 -23z" />
    <glyph glyph-name="g" unicode="g" horiz-adv-x="490" 
d="M506 454l-13 -100h-73q17 -37 17 -72q0 -67 -49.5 -116.5t-140.5 -49.5q-49 0 -65.5 -5t-16.5 -19t28 -21t68.5 -13.5t81 -18t68.5 -42.5t28 -79q0 -148 -234 -148q-118 0 -167 33t-49 79q0 67 112 102q-29 14 -46 36.5t-17 47.5q0 38 34 61q20 13 58 23q-79 47 -79 131
q0 67 54.5 119t146.5 52h254zM312 298q0 30 -17 47.5t-46 17.5q-74 0 -74 -100q0 -30 17 -46.5t46 -16.5q74 0 74 98zM190 -43q-83 -11 -83 -53q0 -47 100 -47q57 0 81.5 10t24.5 33q0 21 -21.5 30.5t-76.5 21.5q-16 3 -25 5z" />
    <glyph glyph-name="h" unicode="h" 
d="M261 682l-40 -280q71 60 152 60q66 0 100 -44.5t23 -123.5l-41 -294h-135l41 291q3 25 -8 43t-34 18q-47 0 -113 -57l-41 -295h-135l96 682h135z" />
    <glyph glyph-name="i" unicode="i" horiz-adv-x="260" 
d="M228 454l-64 -454h-135l64 454h135zM176 650q29 0 49.5 -20.5t20.5 -49.5t-20.5 -49.5t-49.5 -20.5t-49.5 20.5t-20.5 49.5t20.5 49.5t49.5 20.5z" />
    <glyph glyph-name="j" unicode="j" horiz-adv-x="260" 
d="M225 454l-63 -446q-11 -83 -23.5 -122t-40.5 -67q-29 -29 -76 -42.5t-98 -0.5l16 108q42 0 59 21.5t24 73.5l67 475h135zM172 650q29 0 49.5 -20.5t20.5 -49.5t-20.5 -49.5t-49.5 -20.5t-49.5 20.5t-20.5 49.5t20.5 49.5t49.5 20.5z" />
    <glyph glyph-name="k" unicode="k" horiz-adv-x="509" 
d="M260 682l-60 -422l2 -2l162 196h167l-180 -216l175 -238h-164l-167 224l-31 -224h-135l96 682h135z" />
    <glyph glyph-name="l" unicode="l" horiz-adv-x="260" 
d="M263 682l-96 -682h-135l96 682h135z" />
    <glyph glyph-name="m" unicode="m" horiz-adv-x="823" 
d="M227 454l-8 -58l2 -2q71 68 142 68q45 0 75.5 -22t39.5 -61q48 45 85.5 64t79.5 19q73 0 108 -50.5t23 -129.5l-39 -282h-135l37 261q14 101 -36 101q-49 0 -110 -71l-41 -291h-135l35 260q7 53 -2 77.5t-37 24.5q-43 0 -107 -71l-41 -291h-135l64 454h135z" />
    <glyph glyph-name="n" unicode="n" 
d="M229 454l-8 -51q77 59 155 59q74 0 102.5 -52t17.5 -129l-39 -281h-135l38 271q5 37 -5 64t-35 27q-48 0 -114 -70l-41 -292h-135l64 454h135z" />
    <glyph glyph-name="o" unicode="o" horiz-adv-x="563" 
d="M522 248q0 -109 -74.5 -183t-183.5 -74q-97 0 -163 63.5t-66 155.5q0 104 77 178t185 74q99 0 162 -59t63 -155zM382 252q0 45 -25 72.5t-66 27.5q-31 0 -55 -16.5t-36.5 -41.5t-18.5 -48.5t-6 -43.5q0 -48 28 -74.5t62 -26.5q54 0 85.5 48.5t31.5 102.5z" />
    <glyph glyph-name="p" unicode="p" horiz-adv-x="583" 
d="M277 542l-12 -88q22 4 44 6q28 2 39 2q89 0 144 -54.5t55 -143.5q0 -114 -83 -193.5t-202 -79.5q-25 0 -61 9l-32 -230h-135l72 515q-31 -23 -52.5 -48.5t-30.5 -37t-19 -11.5q-8 0 -8 9q0 11 10.5 36.5t40.5 67t72 75.5l23 166h135zM251 356l-34 -246q21 -9 41 -9
q77 0 113 50t36 110t-40.5 85.5t-115.5 9.5z" />
    <glyph glyph-name="q" unicode="q" 
d="M521 460l-97 -690h-135l37 261q-74 -39 -132 -39q-71 0 -114.5 54t-43.5 142q0 56 18 104t54 86.5t97.5 60t141.5 21.5h174zM339 124l31 222q-88 7 -142 -33.5t-54 -121.5q0 -45 21.5 -72t57.5 -27q43 0 86 32z" />
    <glyph glyph-name="r" unicode="r" horiz-adv-x="365" 
d="M222 454l-10 -65l2 -2q61 75 110 75q38 0 81 -50l-63 -125q-33 49 -64 49q-22 0 -46 -20.5t-36 -45.5l-38 -270h-135l64 454h135z" />
    <glyph glyph-name="s" unicode="s" horiz-adv-x="375" 
d="M359 421l-11 -107q-34 17 -72.5 27.5t-58.5 10.5q-30 0 -30 -20q0 -16 23.5 -37t52 -39.5t52 -51.5t23.5 -70q0 -62 -47.5 -102t-122.5 -40q-76 0 -157 41l19 101q87 -32 124 -32q44 0 44 25q0 16 -24 37.5t-52 41t-52 49.5t-24 60q0 65 47.5 106t122.5 41q69 0 143 -41z
" />
    <glyph glyph-name="t" unicode="t" horiz-adv-x="365" 
d="M277 550l-19 -96h100l-18 -100h-100l-26 -147q-7 -41 1.5 -68t35.5 -27q24 0 78 27v-119q-61 -29 -116 -29q-80 0 -116 56.5t-22 133.5l32 173h-92l17 100h92l16 96h137z" />
    <glyph glyph-name="u" unicode="u" 
d="M518 454l-64 -454h-135l8 51q-70 -59 -147 -59q-75 0 -108 49.5t-22 124.5l41 288h135l-34 -241q-17 -121 36 -121t114 66l41 296h135z" />
    <glyph glyph-name="v" unicode="v" horiz-adv-x="458" 
d="M481 454l-246 -462h-92l-116 462h131l57 -252h2l121 252h143z" />
    <glyph glyph-name="w" unicode="w" horiz-adv-x="729" 
d="M757 454l-258 -462h-87l-49 235l-131 -235h-85l-114 462h131l52 -263h2l136 263h81l49 -263h2l129 263h142z" />
    <glyph glyph-name="x" unicode="x" horiz-adv-x="531" 
d="M552 454l-198 -232l134 -222h-148l-74 142l-117 -142h-170l215 238l-130 216h149l68 -133l105 133h166z" />
    <glyph glyph-name="y" unicode="y" horiz-adv-x="490" 
d="M510 454l-330 -684h-142l132 272l-145 412h135l89 -265l120 265h141z" />
    <glyph glyph-name="z" unicode="z" horiz-adv-x="458" 
d="M457 454l-223 -342h197l-17 -112h-413l231 342h-184l16 112h393z" />
    <glyph glyph-name="braceleft" unicode="{" horiz-adv-x="385" 
d="M29 314q61 1 84 37.5t23 111.5v79q0 98 45.5 140t137.5 42h44v-117h-6q-66 0 -80.5 -17t-14.5 -94q0 -99 -14.5 -149.5t-70.5 -89.5q56 -39 70.5 -89.5t14.5 -149.5q0 -77 14.5 -94t80.5 -17h6v-117h-44q-92 0 -137.5 42t-45.5 140v79q0 75 -23 111.5t-84 37.5v114z" />
    <glyph glyph-name="bar" unicode="|" horiz-adv-x="281" 
d="M102 -250v1000h109v-1000h-109z" />
    <glyph glyph-name="braceright" unicode="}" horiz-adv-x="385" 
d="M356 200q-61 -1 -84 -37.5t-23 -111.5v-79q0 -98 -45.5 -140t-137.5 -42h-44v117h6q66 0 80.5 17t14.5 94q0 99 14.5 149.5t70.5 89.5q-56 39 -70.5 89.5t-14.5 149.5q0 77 -14.5 94t-80.5 17h-6v117h44q92 0 137.5 -42t45.5 -140v-79q0 -75 23 -111.5t84 -37.5v-114z
" />
    <glyph glyph-name="asciitilde" unicode="~" horiz-adv-x="584" 
d="M29 175v131q88 72 160 72q44 0 126 -39t119 -39q60 0 146 74v-130q-29 -29 -74 -50.5t-84 -21.5q-43 0 -127.5 39.5t-113.5 39.5q-35 0 -68 -16.5t-84 -59.5z" />
    <glyph glyph-name="uni00A0" unicode="&#xa0;" horiz-adv-x="278" 
 />
    <glyph glyph-name="exclamdown" unicode="&#xa1;" horiz-adv-x="260" 
d="M107 248h80l-17 -304q-6 -121 -38 -153q-21 -21 -51 -21t-47 19.5t-17 53.5q0 44 18 116zM165 301q-35 0 -59.5 24.5t-24.5 59.5t24.5 59.5t59.5 24.5t59.5 -24.5t24.5 -59.5t-24.5 -59.5t-59.5 -24.5z" />
    <glyph glyph-name="cent" unicode="&#xa2;" horiz-adv-x="469" 
d="M463 633l-57 -177q31 -5 44 -8l-18 -121q-35 14 -59 17l-73 -236q65 6 125 39l-19 -134q-60 -22 -143 -22l-57 -178h-66l59 187q-75 17 -120 73t-45 134q0 108 84 181.5t208 73.5h18l54 171h65zM236 116l71 229q-59 -8 -95 -45.5t-36 -90.5q0 -67 60 -93z" />
    <glyph glyph-name="sterling" unicode="&#xa3;" horiz-adv-x="542" 
d="M518 663l-13 -123q-39 24 -69 24q-70 0 -102 -108l-27 -89h85l-18 -106h-99l-39 -131q28 5 53 5q19 0 59 -8.5t70 -8.5q56 0 100 25l-26 -138q-32 -14 -67 -14q-36 0 -103.5 11.5t-122.5 11.5q-65 0 -130 -23h-13l79 270h-75l15 106h92l20 68q76 256 232 256q58 0 99 -28
z" />
    <glyph glyph-name="currency" unicode="&#xa4;" 
d="M455 87l-66 66q-45 -28 -105 -28q-58 0 -104 27l-65 -65l-85 85l65 65q-27 43 -27 105q0 54 27 105l-65 65l83 83l64 -64q60 27 107 27q58 0 105 -27l65 65l85 -85l-65 -65q27 -49 27 -104q0 -53 -28 -107l65 -65zM185 342q0 -41 29 -70.5t70 -29.5t70.5 29.5t29.5 70.5
t-29.5 70t-70.5 29t-70 -29t-29 -70z" />
    <glyph glyph-name="yen" unicode="&#xa5;" 
d="M291 0h-138l28 136h-182l19 94h183l13 62h-182l20 94h132l-98 330h141l71 -307h2l182 307h160l-227 -330h137l-20 -94h-180l-13 -62h180l-19 -94h-181z" />
    <glyph glyph-name="brokenbar" unicode="&#xa6;" horiz-adv-x="281" 
d="M86 -175v350h109v-350h-109zM86 325v350h109v-350h-109z" />
    <glyph glyph-name="section" unicode="&#xa7;" 
d="M525 534l-120 -21q-2 68 -71 68q-29 0 -47.5 -15t-18.5 -38q0 -20 18 -41t44.5 -38t57.5 -40.5t57.5 -47.5t44.5 -59.5t18 -75.5q0 -61 -29 -102.5t-94 -77.5q41 -59 41 -109q0 -67 -53 -117t-155 -50q-188 0 -193 159l114 31q7 -74 77 -74q32 0 51 14.5t19 38.5
q0 26 -25 51.5t-60.5 50t-71.5 52t-61 68.5t-25 89q0 110 132 174q-38 58 -38 107q0 73 57.5 116.5t153.5 43.5q172 0 177 -157zM241 354q-69 -42 -69 -90q0 -20 13 -39t28 -31t50 -37.5t56 -42.5q62 34 62 91q0 23 -14.5 45t-29 34t-48.5 35.5t-48 34.5z" />
    <glyph glyph-name="dieresis" unicode="&#xa8;" horiz-adv-x="333" 
d="M307 663q27 0 46 -19t19 -46t-19 -46.5t-46 -19.5t-46.5 19.5t-19.5 46.5t19.5 46t46.5 19zM105 663q27 0 46 -19t19 -46t-19 -46.5t-46 -19.5t-46.5 19.5t-19.5 46.5t19.5 46t46.5 19z" />
    <glyph glyph-name="copyright" unicode="&#xa9;" horiz-adv-x="740" 
d="M460 301l79 -27q-19 -61 -61 -93.5t-103 -32.5q-86 0 -137.5 55.5t-51.5 149.5q0 97 51 154t139 57q120 0 163 -119l-79 -19q-26 68 -87 68q-48 0 -74.5 -36t-26.5 -102q0 -65 25.5 -102t71.5 -37q67 0 91 84zM370 730q155 0 264.5 -109.5t109.5 -264.5t-109.5 -264.5
t-264.5 -109.5t-264.5 109.5t-109.5 264.5t109.5 264.5t264.5 109.5zM370 656q-124 0 -212 -88t-88 -212q0 -125 88 -213t212 -88t212.5 88.5t88.5 212.5t-88 212t-213 88z" />
    <glyph glyph-name="ordfeminine" unicode="&#xaa;" horiz-adv-x="365" 
d="M392 682l-44 -270h-93l3 18q-35 -22 -78 -22q-47 0 -77 33t-30 85q0 77 58 121t159 44q52 0 102 -9zM267 494l17 124h-18q-42 0 -69 -25t-27 -71q0 -22 10.5 -34.5t27.5 -12.5q28 0 59 19z" />
    <glyph glyph-name="guillemotleft" unicode="&#xab;" horiz-adv-x="542" 
d="M572 461l-164 -230l67 -231h-113l-73 255l151 206h132zM299 461l-164 -230l67 -231h-113l-73 255l151 206h132z" />
    <glyph glyph-name="logicalnot" unicode="&#xac;" horiz-adv-x="584" 
d="M426 121v213h-371v128h499v-341h-128z" />
    <glyph glyph-name="uni00AD" unicode="&#xad;" horiz-adv-x="344" 
d="M338 294l-20 -138h-312l19 138h313z" />
    <glyph glyph-name="registered" unicode="&#xae;" horiz-adv-x="740" 
d="M546 156h-99l-32 65q-24 48 -54 78q-20 20 -65 20h-15v-163h-80v397h196q61 0 93 -30.5t32 -80.5q0 -45 -28.5 -75t-78.5 -36v-2q26 -9 40.5 -25t44.5 -68zM281 382h83q38 0 55.5 15.5t17.5 39.5q0 54 -82 54h-74v-109zM370 730q155 0 264.5 -109.5t109.5 -264.5
t-109.5 -264.5t-264.5 -109.5t-264.5 109.5t-109.5 264.5t109.5 264.5t264.5 109.5zM370 656q-124 0 -212 -88t-88 -212q0 -125 88 -213t212 -88t212.5 88.5t88.5 212.5t-88 212t-213 88z" />
    <glyph glyph-name="macron" unicode="&#xaf;" horiz-adv-x="333" 
d="M413 648l-29 -100h-387l29 100h387z" />
    <glyph glyph-name="degree" unicode="&#xb0;" horiz-adv-x="396" 
d="M385 572q0 -64 -45.5 -110t-110.5 -46t-110.5 46t-45.5 110t45.5 110t110.5 46t110.5 -46t45.5 -110zM299 572q0 29 -20.5 49.5t-49.5 20.5t-49.5 -20.5t-20.5 -49.5t20.5 -49.5t49.5 -20.5t49.5 20.5t20.5 49.5z" />
    <glyph glyph-name="plusminus" unicode="&#xb1;" horiz-adv-x="584" 
d="M55 0v128h500v-128h-500zM55 360v128h186v186h128v-186h186v-128h-186v-186h-128v186h-186z" />
    <glyph glyph-name="two.superior" unicode="&#xb2;" horiz-adv-x="323" 
d="M294 407l-11 -75h-245l4 16q87 98 128 154t41 83q0 14 -9.5 23t-25.5 9q-35 0 -93 -42l12 87q44 29 96 29t85 -27.5t33 -69.5q0 -34 -23 -72.5t-89 -114.5h97z" />
    <glyph glyph-name="three.superior" unicode="&#xb3;" horiz-adv-x="323" 
d="M82 589l12 82q54 20 101 20q57 0 93 -26.5t36 -67.5q0 -30 -17 -52.5t-47 -32.5q43 -26 43 -73q0 -50 -43.5 -81t-112.5 -31q-48 0 -107 24l11 74q57 -27 94 -27q25 0 41.5 12.5t16.5 30.5q0 19 -15.5 29.5t-42.5 10.5q-20 0 -37 -4l10 76q32 -7 51 -7q26 0 42.5 11
t16.5 29q0 34 -45 34q-40 0 -101 -31z" />
    <glyph glyph-name="acute" unicode="&#xb4;" horiz-adv-x="333" 
d="M116 504l89 172h161l-177 -172h-73z" />
    <glyph glyph-name="mu" unicode="&#xb5;" horiz-adv-x="615" 
d="M143 454h133l-59 -247q-13 -55 4.5 -90.5t74.5 -35.5q91 0 118 111l64 262h133l-109 -454h-120l11 42l-2 2q-48 -53 -110 -53q-75 0 -102 59h-2l-54 -225h-133z" />
    <glyph glyph-name="paragraph" unicode="&#xb6;" 
d="M310 -197h-119v511q-91 7 -141.5 59.5t-50.5 138.5q0 88 54 146t164 58h334v-128h-55v-785h-119v785h-67v-785z" />
    <glyph glyph-name="periodcentered" unicode="&#xb7;" horiz-adv-x="260" 
d="M233 346q0 -36 -25.5 -61.5t-61.5 -25.5t-61.5 25.5t-25.5 61.5t25.5 61.5t61.5 25.5t61.5 -25.5t25.5 -61.5z" />
    <glyph glyph-name="cedilla" unicode="&#xb8;" horiz-adv-x="333" 
d="M192 9l-10 -32q53 -14 53 -67q0 -39 -30.5 -61.5t-85.5 -22.5q-44 0 -69 10l10 45q20 -5 45 -5q53 0 53 32q0 30 -43 32l31 69h46z" />
    <glyph glyph-name="one.superior" unicode="&#xb9;" horiz-adv-x="323" 
d="M270 687l-58 -355h-95l58 355h95z" />
    <glyph glyph-name="ordmasculine" unicode="&#xba;" horiz-adv-x="375" 
d="M394 562q0 -65 -49 -109.5t-121 -44.5q-65 0 -109 38t-44 93q0 62 51 107t123 45q65 0 107 -36.5t42 -92.5zM294 564q0 25 -14.5 40.5t-38.5 15.5q-29 0 -49.5 -25.5t-20.5 -60.5q0 -23 15.5 -39t37.5 -16q28 0 49 25t21 60z" />
    <glyph glyph-name="guillemotright" unicode="&#xbb;" horiz-adv-x="542" 
d="M243 0l164 230l-67 231h113l73 -255l-151 -206h-132zM-30 0l164 230l-67 231h113l73 -255l-151 -206h-132z" />
    <glyph glyph-name="onequarter" unicode="&#xbc;" horiz-adv-x="844" 
d="M720 360l-39 -221h46l-8 -59h-45l-12 -80h-95l12 80h-136v67l201 213h76zM601 225l-79 -86h64l17 84zM269 687l-58 -355h-95l58 355h95zM662 691l-479 -718h-88l479 718h88z" />
    <glyph glyph-name="onehalf" unicode="&#xbd;" horiz-adv-x="844" 
d="M718 75l-11 -75h-245l4 16q87 98 128 154t41 83q0 14 -9.5 23t-25.5 9q-35 0 -93 -42l12 87q43 29 96 29q52 0 85 -27.5t33 -69.5q0 -34 -23 -72.5t-89 -114.5h97zM644 691l-479 -718h-88l479 718h88zM251 687l-58 -355h-95l58 355h95z" />
    <glyph glyph-name="threequarters" unicode="&#xbe;" horiz-adv-x="844" 
d="M703 691l-479 -718h-88l479 718h88zM87 589l12 82q54 20 101 20q57 0 93 -26.5t36 -67.5q0 -30 -17 -52.5t-47 -32.5q43 -26 43 -73q0 -50 -43.5 -81t-112.5 -31q-48 0 -107 24l11 74q57 -27 94 -27q25 0 41.5 12.5t16.5 30.5q0 19 -15.5 29.5t-42.5 10.5q-20 0 -37 -4
l10 76q32 -7 51 -7q26 0 42.5 11t16.5 29q0 34 -45 34q-40 0 -101 -31zM761 360l-39 -221h46l-8 -59h-45l-12 -80h-95l12 80h-136v67l201 213h76zM642 225l-79 -86h64l17 84z" />
    <glyph glyph-name="questiondown" unicode="&#xbf;" horiz-adv-x="323" 
d="M141 245h106q-1 -44 -17 -84t-38.5 -68t-44.5 -52t-37.5 -47.5t-15.5 -44.5t16 -34.5t41 -13.5q49 0 130 48l-19 -132q-75 -47 -144 -47q-70 0 -117 46.5t-47 114.5q0 45 17 81t42 61t51.5 48.5t48 55t28.5 68.5zM198 301q-34 0 -59 24.5t-25 59.5t25 59.5t59 24.5
t59 -24.5t25 -59.5t-25 -59.5t-59 -24.5z" />
    <glyph glyph-name="Agrave" unicode="&#xc0;" horiz-adv-x="625" 
d="M461 691l120 -691h-149l-21 149h-212l-66 -149h-160l334 691h154zM361 548l-120 -302h158l-36 302h-2zM482 728h-73l-177 172h161z" />
    <glyph glyph-name="Aacute" unicode="&#xc1;" horiz-adv-x="625" 
d="M461 691l120 -691h-149l-21 149h-212l-66 -149h-160l334 691h154zM361 548l-120 -302h158l-36 302h-2zM297 728l89 172h161l-177 -172h-73z" />
    <glyph glyph-name="Acircumflex" unicode="&#xc2;" horiz-adv-x="625" 
d="M461 691l120 -691h-149l-21 149h-212l-66 -149h-160l334 691h154zM361 548l-120 -302h158l-36 302h-2zM486 900l59 -160h-82l-61 91l-100 -91h-91l126 160h149z" />
    <glyph glyph-name="Atilde" unicode="&#xc3;" horiz-adv-x="625" 
d="M461 691l120 -691h-149l-21 149h-212l-66 -149h-160l334 691h154zM361 548l-120 -302h158l-36 302h-2zM286 739h-64q0 71 25 109t72 38q33 0 76 -24t55 -24q31 0 38 48h64q1 -70 -25.5 -109t-72.5 -39q-26 0 -72 24t-58 24q-35 0 -38 -47z" />
    <glyph glyph-name="Adieresis" unicode="&#xc4;" horiz-adv-x="625" 
d="M461 691l120 -691h-149l-21 149h-212l-66 -149h-160l334 691h154zM361 548l-120 -302h158l-36 302h-2zM488 887q27 0 46 -19t19 -46t-19 -46.5t-46 -19.5t-46.5 19.5t-19.5 46.5t19.5 46t46.5 19zM286 887q27 0 46 -19t19 -46t-19 -46.5t-46 -19.5t-46.5 19.5t-19.5 46.5
t19.5 46t46.5 19z" />
    <glyph glyph-name="Aring" unicode="&#xc5;" horiz-adv-x="625" 
d="M461 691l120 -691h-149l-21 149h-212l-66 -149h-160l334 691h154zM361 548l-120 -302h158l-36 302h-2zM402 915q41 0 70.5 -29.5t29.5 -70.5t-29.5 -70.5t-70.5 -29.5t-70.5 29.5t-29.5 70.5t29.5 70.5t70.5 29.5zM402 870q-22 0 -38.5 -16t-16.5 -39t16.5 -39t38.5 -16
t38.5 16t16.5 39t-16.5 39t-38.5 16z" />
    <glyph glyph-name="AE" unicode="&#xc6;" horiz-adv-x="990" 
d="M974 682l-13 -114h-311l-22 -160h275l-17 -114h-274l-26 -180h388l-19 -114h-530l24 169h-239l-108 -169h-167l438 682h601zM507 581h-35l-198 -311h189z" />
    <glyph glyph-name="Ccedilla" unicode="&#xc7;" horiz-adv-x="688" 
d="M651 197l-21 -152q-123 -54 -260 -54l-8 -19q53 -14 53 -67q0 -39 -30.5 -61.5t-85.5 -22.5q-44 0 -69 10l10 45q20 -5 45 -5q53 0 53 32q0 30 -43 32l28 61q-121 20 -193 102.5t-72 204.5q0 172 124 280t321 108q85 0 185 -25l-24 -126q-81 25 -165 25q-78 0 -137 -26
t-91 -67.5t-47.5 -85t-15.5 -86.5q0 -84 52.5 -133.5t142.5 -49.5q108 0 248 80z" />
    <glyph glyph-name="Egrave" unicode="&#xc8;" horiz-adv-x="583" 
d="M564 682l-16 -114h-281l-23 -161h247l-16 -114h-247l-25 -179h354l-16 -114h-499l96 682h426zM461 728h-73l-177 172h161z" />
    <glyph glyph-name="Eacute" unicode="&#xc9;" horiz-adv-x="583" 
d="M564 682l-16 -114h-281l-23 -161h247l-16 -114h-247l-25 -179h354l-16 -114h-499l96 682h426zM276 728l89 172h161l-177 -172h-73z" />
    <glyph glyph-name="Ecircumflex" unicode="&#xca;" horiz-adv-x="583" 
d="M564 682l-16 -114h-281l-23 -161h247l-16 -114h-247l-25 -179h354l-16 -114h-499l96 682h426zM465 900l59 -160h-82l-61 91l-100 -91h-91l126 160h149z" />
    <glyph glyph-name="Edieresis" unicode="&#xcb;" horiz-adv-x="583" 
d="M564 682l-16 -114h-281l-23 -161h247l-16 -114h-247l-25 -179h354l-16 -114h-499l96 682h426zM467 887q27 0 46 -19t19 -46t-19 -46.5t-46 -19.5t-46.5 19.5t-19.5 46.5t19.5 46t46.5 19zM265 887q27 0 46 -19t19 -46t-19 -46.5t-46 -19.5t-46.5 19.5t-19.5 46.5t19.5 46
t46.5 19z" />
    <glyph glyph-name="Igrave" unicode="&#xcc;" horiz-adv-x="302" 
d="M286 682l-96 -682h-145l96 682h145zM321 728h-73l-177 172h161z" />
    <glyph glyph-name="Iacute" unicode="&#xcd;" horiz-adv-x="302" 
d="M286 682l-96 -682h-145l96 682h145zM136 728l89 172h161l-177 -172h-73z" />
    <glyph glyph-name="Icircumflex" unicode="&#xce;" horiz-adv-x="302" 
d="M286 682l-96 -682h-145l96 682h145zM325 900l59 -160h-82l-61 91l-100 -91h-91l126 160h149z" />
    <glyph glyph-name="Idieresis" unicode="&#xcf;" horiz-adv-x="302" 
d="M286 682l-96 -682h-145l96 682h145zM327 887q27 0 46 -19t19 -46t-19 -46.5t-46 -19.5t-46.5 19.5t-19.5 46.5t19.5 46t46.5 19zM125 887q27 0 46 -19t19 -46t-19 -46.5t-46 -19.5t-46.5 19.5t-19.5 46.5t19.5 46t46.5 19z" />
    <glyph glyph-name="Eth" unicode="&#xd0;" horiz-adv-x="750" 
d="M136 682h227q97 0 169 -30.5t110 -81t55.5 -105.5t17.5 -115q0 -151 -92.5 -250.5t-229.5 -99.5h-352l40 289h-72l14 104h73zM265 568l-24 -175h176l-15 -104h-176l-24 -175h136q113 0 170 70t57 168q0 94 -60.5 155t-169.5 61h-70z" />
    <glyph glyph-name="Ntilde" unicode="&#xd1;" horiz-adv-x="781" 
d="M767 682l-95 -682h-138l-280 462h-2l-64 -462h-145l96 682h145l275 -445h2l61 445h145zM364 739h-64q0 71 25 109t72 38q33 0 76 -24t55 -24q31 0 38 48h64q1 -70 -25.5 -109t-72.5 -39q-26 0 -72 24t-58 24q-35 0 -38 -47z" />
    <glyph glyph-name="Ograve" unicode="&#xd2;" horiz-adv-x="833" 
d="M797 380q0 -174 -110.5 -281.5t-282.5 -107.5q-149 0 -246.5 89t-97.5 228q0 166 114 274.5t287 108.5q149 0 242.5 -87t93.5 -224zM647 370q0 85 -55.5 140t-140.5 55q-99 0 -170 -73.5t-71 -176.5q0 -88 54.5 -143t140.5 -55q101 0 171.5 73.5t70.5 179.5zM586 728h-73
l-177 172h161z" />
    <glyph glyph-name="Oacute" unicode="&#xd3;" horiz-adv-x="833" 
d="M797 380q0 -174 -110.5 -281.5t-282.5 -107.5q-149 0 -246.5 89t-97.5 228q0 166 114 274.5t287 108.5q149 0 242.5 -87t93.5 -224zM647 370q0 85 -55.5 140t-140.5 55q-99 0 -170 -73.5t-71 -176.5q0 -88 54.5 -143t140.5 -55q101 0 171.5 73.5t70.5 179.5zM401 728
l89 172h161l-177 -172h-73z" />
    <glyph glyph-name="Ocircumflex" unicode="&#xd4;" horiz-adv-x="833" 
d="M797 380q0 -174 -110.5 -281.5t-282.5 -107.5q-149 0 -246.5 89t-97.5 228q0 166 114 274.5t287 108.5q149 0 242.5 -87t93.5 -224zM647 370q0 85 -55.5 140t-140.5 55q-99 0 -170 -73.5t-71 -176.5q0 -88 54.5 -143t140.5 -55q101 0 171.5 73.5t70.5 179.5zM590 900
l59 -160h-82l-61 91l-100 -91h-91l126 160h149z" />
    <glyph glyph-name="Otilde" unicode="&#xd5;" horiz-adv-x="833" 
d="M797 380q0 -174 -110.5 -281.5t-282.5 -107.5q-149 0 -246.5 89t-97.5 228q0 166 114 274.5t287 108.5q149 0 242.5 -87t93.5 -224zM647 370q0 85 -55.5 140t-140.5 55q-99 0 -170 -73.5t-71 -176.5q0 -88 54.5 -143t140.5 -55q101 0 171.5 73.5t70.5 179.5zM390 739h-64
q0 71 25 109t72 38q33 0 76 -24t55 -24q31 0 38 48h64q1 -70 -25.5 -109t-72.5 -39q-26 0 -72 24t-58 24q-35 0 -38 -47z" />
    <glyph glyph-name="Odieresis" unicode="&#xd6;" horiz-adv-x="833" 
d="M797 380q0 -174 -110.5 -281.5t-282.5 -107.5q-149 0 -246.5 89t-97.5 228q0 166 114 274.5t287 108.5q149 0 242.5 -87t93.5 -224zM647 370q0 85 -55.5 140t-140.5 55q-99 0 -170 -73.5t-71 -176.5q0 -88 54.5 -143t140.5 -55q101 0 171.5 73.5t70.5 179.5zM592 887
q27 0 46 -19t19 -46t-19 -46.5t-46 -19.5t-46.5 19.5t-19.5 46.5t19.5 46t46.5 19zM390 887q27 0 46 -19t19 -46t-19 -46.5t-46 -19.5t-46.5 19.5t-19.5 46.5t19.5 46t46.5 19z" />
    <glyph glyph-name="multiply" unicode="&#xd7;" horiz-adv-x="584" 
d="M67 205l148 148l-148 148l90 90l148 -148l148 148l90 -90l-148 -148l148 -148l-90 -90l-148 148l-148 -148z" />
    <glyph glyph-name="Oslash" unicode="&#xd8;" horiz-adv-x="833" 
d="M244 196l308 344q-52 25 -101 25q-99 0 -170 -73.5t-71 -176.5q0 -71 34 -119zM199 48l-91 -101l-47 44l87 97q-88 88 -88 220q0 166 114 274.5t287 108.5q105 0 185 -46l57 64l68 -27l-69 -76q95 -89 95 -226q0 -174 -110.5 -281.5t-282.5 -107.5q-115 0 -205 57z
M604 497l-313 -347q55 -33 114 -33q101 0 171.5 73.5t70.5 179.5q0 72 -43 127z" />
    <glyph glyph-name="Ugrave" unicode="&#xd9;" horiz-adv-x="750" 
d="M744 682l-60 -425q-37 -266 -314 -266q-169 0 -243.5 83.5t-54.5 219.5l56 388h145l-55 -386q-8 -54 5 -92t40.5 -55.5t53.5 -24.5t53 -7q65 0 112.5 36.5t58.5 115.5l58 413h145zM545 728h-73l-177 172h161z" />
    <glyph glyph-name="Uacute" unicode="&#xda;" horiz-adv-x="750" 
d="M744 682l-60 -425q-37 -266 -314 -266q-169 0 -243.5 83.5t-54.5 219.5l56 388h145l-55 -386q-8 -54 5 -92t40.5 -55.5t53.5 -24.5t53 -7q65 0 112.5 36.5t58.5 115.5l58 413h145zM360 728l89 172h161l-177 -172h-73z" />
    <glyph glyph-name="Ucircumflex" unicode="&#xdb;" horiz-adv-x="750" 
d="M744 682l-60 -425q-37 -266 -314 -266q-169 0 -243.5 83.5t-54.5 219.5l56 388h145l-55 -386q-8 -54 5 -92t40.5 -55.5t53.5 -24.5t53 -7q65 0 112.5 36.5t58.5 115.5l58 413h145zM549 900l59 -160h-82l-61 91l-100 -91h-91l126 160h149z" />
    <glyph glyph-name="Udieresis" unicode="&#xdc;" horiz-adv-x="750" 
d="M744 682l-60 -425q-37 -266 -314 -266q-169 0 -243.5 83.5t-54.5 219.5l56 388h145l-55 -386q-8 -54 5 -92t40.5 -55.5t53.5 -24.5t53 -7q65 0 112.5 36.5t58.5 115.5l58 413h145zM551 887q27 0 46 -19t19 -46t-19 -46.5t-46 -19.5t-46.5 19.5t-19.5 46.5t19.5 46
t46.5 19zM349 887q27 0 46 -19t19 -46t-19 -46.5t-46 -19.5t-46.5 19.5t-19.5 46.5t19.5 46t46.5 19z" />
    <glyph glyph-name="Yacute" unicode="&#xdd;" horiz-adv-x="563" 
d="M618 682l-257 -396l-40 -286h-145l40 286l-144 396h145l88 -263l158 263h155zM266 728l89 172h161l-177 -172h-73z" />
    <glyph glyph-name="Thorn" unicode="&#xde;" horiz-adv-x="583" 
d="M141 682h145l-18 -129h78q96 0 161 -53t65 -150q0 -61 -22 -106t-59 -69.5t-78.5 -35.5t-88.5 -11h-115l-18 -128h-145zM253 445l-29 -210h61q68 0 102.5 30.5t34.5 78.5q0 45 -33.5 73t-100.5 28h-35z" />
    <glyph glyph-name="germandbls" unicode="&#xdf;" 
d="M27 0l61 434q11 79 25.5 122.5t43.5 72.5q62 62 162 62q89 0 141.5 -46.5t52.5 -125.5q0 -109 -104 -146q50 -26 72.5 -63.5t22.5 -95.5q0 -96 -61 -159.5t-153 -63.5q-29 0 -57 8l15 108q17 -6 31 -6q40 0 63.5 36.5t23.5 96.5q0 42 -21.5 69.5t-55.5 27.5h-10l14 99h7
q37 0 61 24t24 62q0 33 -20 54t-51 21q-44 0 -61 -36t-30 -125l-61 -430h-135z" />
    <glyph glyph-name="agrave" unicode="&#xe0;" 
d="M521 447l-63 -447h-135l6 42q-64 -51 -131 -51q-69 0 -114 55t-45 140q0 52 17.5 99t54.5 88t103 65t154 24q77 0 153 -15zM342 132l30 216q-48 5 -84.5 -6t-56.5 -29.5t-32.5 -45t-16 -47.5t-3.5 -41q0 -41 17.5 -64t48.5 -23q49 0 97 40zM411 504h-73l-177 172h161z
" />
    <glyph glyph-name="aacute" unicode="&#xe1;" 
d="M521 447l-63 -447h-135l6 42q-64 -51 -131 -51q-69 0 -114 55t-45 140q0 52 17.5 99t54.5 88t103 65t154 24q77 0 153 -15zM342 132l30 216q-48 5 -84.5 -6t-56.5 -29.5t-32.5 -45t-16 -47.5t-3.5 -41q0 -41 17.5 -64t48.5 -23q49 0 97 40zM226 504l89 172h161l-177 -172
h-73z" />
    <glyph glyph-name="acircumflex" unicode="&#xe2;" 
d="M521 447l-63 -447h-135l6 42q-64 -51 -131 -51q-69 0 -114 55t-45 140q0 52 17.5 99t54.5 88t103 65t154 24q77 0 153 -15zM342 132l30 216q-48 5 -84.5 -6t-56.5 -29.5t-32.5 -45t-16 -47.5t-3.5 -41q0 -41 17.5 -64t48.5 -23q49 0 97 40zM415 676l59 -160h-82l-61 91
l-100 -91h-91l126 160h149z" />
    <glyph glyph-name="atilde" unicode="&#xe3;" 
d="M521 447l-63 -447h-135l6 42q-64 -51 -131 -51q-69 0 -114 55t-45 140q0 52 17.5 99t54.5 88t103 65t154 24q77 0 153 -15zM342 132l30 216q-48 5 -84.5 -6t-56.5 -29.5t-32.5 -45t-16 -47.5t-3.5 -41q0 -41 17.5 -64t48.5 -23q49 0 97 40zM215 515h-64q0 71 25 109
t72 38q32 0 76 -24t55 -24q31 0 38 48h64q1 -70 -25.5 -109t-72.5 -39q-26 0 -72 24t-58 24q-35 0 -38 -47z" />
    <glyph glyph-name="adieresis" unicode="&#xe4;" 
d="M521 447l-63 -447h-135l6 42q-64 -51 -131 -51q-69 0 -114 55t-45 140q0 52 17.5 99t54.5 88t103 65t154 24q77 0 153 -15zM342 132l30 216q-48 5 -84.5 -6t-56.5 -29.5t-32.5 -45t-16 -47.5t-3.5 -41q0 -41 17.5 -64t48.5 -23q49 0 97 40zM417 663q27 0 46 -19t19 -46
t-19 -46.5t-46 -19.5t-46.5 19.5t-19.5 46.5t19.5 46t46.5 19zM215 663q27 0 46 -19t19 -46t-19 -46.5t-46 -19.5t-46.5 19.5t-19.5 46.5t19.5 46t46.5 19z" />
    <glyph glyph-name="aring" unicode="&#xe5;" 
d="M521 447l-63 -447h-135l6 42q-64 -51 -131 -51q-69 0 -114 55t-45 140q0 52 17.5 99t54.5 88t103 65t154 24q77 0 153 -15zM342 132l30 216q-48 5 -84.5 -6t-56.5 -29.5t-32.5 -45t-16 -47.5t-3.5 -41q0 -41 17.5 -64t48.5 -23q49 0 97 40zM331 691q41 0 70.5 -29.5
t29.5 -70.5t-29.5 -70.5t-70.5 -29.5t-70.5 29.5t-29.5 70.5t29.5 70.5t70.5 29.5zM331 646q-23 0 -39 -16t-16 -39t16 -39t39 -16t39 16t16 39t-16 39t-39 16z" />
    <glyph glyph-name="ae" unicode="&#xe6;" horiz-adv-x="688" 
d="M649 207h-279q-7 -54 24 -85t82 -31q30 0 59.5 8.5t89.5 34.5l-15 -108q-26 -15 -73.5 -25t-87.5 -10q-97 0 -169 69q-80 -69 -158 -69q-56 0 -92.5 32t-36.5 80q0 69 70 110.5t183 58.5q11 40 2 60t-42 20q-40 0 -135 -43l16 111q68 42 145 42q71 0 116 -42
q56 42 128 42q92 0 147 -73t26 -182zM217 101l16 88q-49 -8 -77.5 -26.5t-28.5 -44.5q0 -17 10 -27t26 -10q21 0 54 20zM377 285h155q6 36 -11.5 56.5t-50.5 20.5q-31 0 -54 -15.5t-39 -61.5z" />
    <glyph glyph-name="ccedilla" unicode="&#xe7;" horiz-adv-x="469" 
d="M422 131l-16 -123q-66 -17 -146 -17l-8 -19q53 -14 53 -67q0 -39 -30.5 -61.5t-85.5 -22.5q-44 0 -69 10l10 45q20 -5 45 -5q53 0 53 32q0 30 -43 32l28 62q-81 15 -129.5 72.5t-48.5 140.5q0 107 84 179.5t207 72.5q75 0 125 -16l-17 -122q-33 14 -57 17q-15 3 -41 3
q-68 0 -114.5 -40t-46.5 -99q0 -50 31 -77t87 -27q53 0 129 30z" />
    <glyph glyph-name="egrave" unicode="&#xe8;" horiz-adv-x="510" 
d="M468 208h-297q-5 -54 24.5 -85.5t79.5 -31.5q55 0 168 46l-24 -113q-88 -33 -158 -33q-103 0 -164.5 60t-61.5 161q0 104 71.5 177t174.5 73q106 0 158.5 -72.5t28.5 -181.5zM184 286h159q6 37 -12 60t-53 23q-65 0 -94 -83zM390 504h-73l-177 172h161z" />
    <glyph glyph-name="eacute" unicode="&#xe9;" horiz-adv-x="510" 
d="M468 208h-297q-5 -54 24.5 -85.5t79.5 -31.5q55 0 168 46l-24 -113q-88 -33 -158 -33q-103 0 -164.5 60t-61.5 161q0 104 71.5 177t174.5 73q106 0 158.5 -72.5t28.5 -181.5zM184 286h159q6 37 -12 60t-53 23q-65 0 -94 -83zM205 504l89 172h161l-177 -172h-73z" />
    <glyph glyph-name="ecircumflex" unicode="&#xea;" horiz-adv-x="510" 
d="M468 208h-297q-5 -54 24.5 -85.5t79.5 -31.5q55 0 168 46l-24 -113q-88 -33 -158 -33q-103 0 -164.5 60t-61.5 161q0 104 71.5 177t174.5 73q106 0 158.5 -72.5t28.5 -181.5zM184 286h159q6 37 -12 60t-53 23q-65 0 -94 -83zM394 676l59 -160h-82l-61 91l-100 -91h-91
l126 160h149z" />
    <glyph glyph-name="edieresis" unicode="&#xeb;" horiz-adv-x="510" 
d="M468 208h-297q-5 -54 24.5 -85.5t79.5 -31.5q55 0 168 46l-24 -113q-88 -33 -158 -33q-103 0 -164.5 60t-61.5 161q0 104 71.5 177t174.5 73q106 0 158.5 -72.5t28.5 -181.5zM184 286h159q6 37 -12 60t-53 23q-65 0 -94 -83zM396 663q27 0 46 -19t19 -46t-19 -46.5
t-46 -19.5t-46.5 19.5t-19.5 46.5t19.5 46t46.5 19zM194 663q27 0 46 -19t19 -46t-19 -46.5t-46 -19.5t-46.5 19.5t-19.5 46.5t19.5 46t46.5 19z" />
    <glyph glyph-name="igrave" unicode="&#xec;" horiz-adv-x="260" 
d="M228 454l-64 -454h-135l64 454h135zM224 504h-73l-177 172h161z" />
    <glyph glyph-name="iacute" unicode="&#xed;" horiz-adv-x="260" 
d="M228 454l-64 -454h-135l64 454h135zM94 504l89 172h161l-177 -172h-73z" />
    <glyph glyph-name="icircumflex" unicode="&#xee;" horiz-adv-x="260" 
d="M228 454l-64 -454h-135l64 454h135zM269 676l59 -160h-82l-61 91l-100 -91h-91l126 160h149z" />
    <glyph glyph-name="idieresis" unicode="&#xef;" horiz-adv-x="260" 
d="M228 454l-64 -454h-135l64 454h135zM271 663q27 0 46 -19t19 -46t-19 -46.5t-46 -19.5t-46.5 19.5t-19.5 46.5t19.5 46t46.5 19zM69 663q27 0 46 -19t19 -46t-19 -46.5t-46 -19.5t-46.5 19.5t-19.5 46.5t19.5 46t46.5 19z" />
    <glyph glyph-name="eth" unicode="&#xf0;" 
d="M372 255q0 43 -26 70t-67 27q-48 0 -82.5 -43.5t-34.5 -102.5q0 -47 24.5 -75.5t66.5 -28.5q55 0 87 46.5t32 106.5zM536 640l-91 -42q87 -104 87 -259q0 -158 -79.5 -252.5t-198.5 -94.5q-100 0 -166 61.5t-66 153.5q0 104 79 179.5t188 75.5q63 0 112 -42l2 2
q-18 63 -71 123l-106 -49l-24 42l92 43q-14 11 -36 25l81 76q42 -19 71 -47l102 47z" />
    <glyph glyph-name="ntilde" unicode="&#xf1;" 
d="M229 454l-8 -51q77 59 155 59q74 0 102.5 -52t17.5 -129l-39 -281h-135l38 271q5 37 -5 64t-35 27q-48 0 -114 -70l-41 -292h-135l64 454h135zM215 515h-64q0 71 25 109t72 38q32 0 76 -24t55 -24q31 0 38 48h64q1 -70 -25.5 -109t-72.5 -39q-26 0 -72 24t-58 24
q-35 0 -38 -47z" />
    <glyph glyph-name="ograve" unicode="&#xf2;" horiz-adv-x="563" 
d="M522 248q0 -109 -74.5 -183t-183.5 -74q-97 0 -163 63.5t-66 155.5q0 104 77 178t185 74q99 0 162 -59t63 -155zM382 252q0 45 -25 72.5t-66 27.5q-31 0 -55 -16.5t-36.5 -41.5t-18.5 -48.5t-6 -43.5q0 -48 28 -74.5t62 -26.5q54 0 85.5 48.5t31.5 102.5zM416 504h-73
l-177 172h161z" />
    <glyph glyph-name="oacute" unicode="&#xf3;" horiz-adv-x="563" 
d="M522 248q0 -109 -74.5 -183t-183.5 -74q-97 0 -163 63.5t-66 155.5q0 104 77 178t185 74q99 0 162 -59t63 -155zM382 252q0 45 -25 72.5t-66 27.5q-31 0 -55 -16.5t-36.5 -41.5t-18.5 -48.5t-6 -43.5q0 -48 28 -74.5t62 -26.5q54 0 85.5 48.5t31.5 102.5zM231 504l89 172
h161l-177 -172h-73z" />
    <glyph glyph-name="ocircumflex" unicode="&#xf4;" horiz-adv-x="563" 
d="M522 248q0 -109 -74.5 -183t-183.5 -74q-97 0 -163 63.5t-66 155.5q0 104 77 178t185 74q99 0 162 -59t63 -155zM382 252q0 45 -25 72.5t-66 27.5q-31 0 -55 -16.5t-36.5 -41.5t-18.5 -48.5t-6 -43.5q0 -48 28 -74.5t62 -26.5q54 0 85.5 48.5t31.5 102.5zM420 676
l59 -160h-82l-61 91l-100 -91h-91l126 160h149z" />
    <glyph glyph-name="otilde" unicode="&#xf5;" horiz-adv-x="563" 
d="M522 248q0 -109 -74.5 -183t-183.5 -74q-97 0 -163 63.5t-66 155.5q0 104 77 178t185 74q99 0 162 -59t63 -155zM382 252q0 45 -25 72.5t-66 27.5q-31 0 -55 -16.5t-36.5 -41.5t-18.5 -48.5t-6 -43.5q0 -48 28 -74.5t62 -26.5q54 0 85.5 48.5t31.5 102.5zM220 515h-64
q0 71 25 109t72 38q33 0 76 -24t55 -24q31 0 38 48h64q1 -70 -25.5 -109t-72.5 -39q-26 0 -72 24t-58 24q-35 0 -38 -47z" />
    <glyph glyph-name="odieresis" unicode="&#xf6;" horiz-adv-x="563" 
d="M522 248q0 -109 -74.5 -183t-183.5 -74q-97 0 -163 63.5t-66 155.5q0 104 77 178t185 74q99 0 162 -59t63 -155zM382 252q0 45 -25 72.5t-66 27.5q-31 0 -55 -16.5t-36.5 -41.5t-18.5 -48.5t-6 -43.5q0 -48 28 -74.5t62 -26.5q54 0 85.5 48.5t31.5 102.5zM422 663
q27 0 46 -19t19 -46t-19 -46.5t-46 -19.5t-46.5 19.5t-19.5 46.5t19.5 46t46.5 19zM220 663q27 0 46 -19t19 -46t-19 -46.5t-46 -19.5t-46.5 19.5t-19.5 46.5t19.5 46t46.5 19z" />
    <glyph glyph-name="divide" unicode="&#xf7;" horiz-adv-x="584" 
d="M305 229q30 0 51.5 -21.5t21.5 -51.5t-21.5 -51.5t-51.5 -21.5t-51.5 21.5t-21.5 51.5t21.5 51.5t51.5 21.5zM55 289v128h500v-128h-500zM305 623q30 0 51.5 -21.5t21.5 -51.5t-21.5 -51.5t-51.5 -21.5t-51.5 21.5t-21.5 51.5t21.5 51.5t51.5 21.5z" />
    <glyph glyph-name="oslash" unicode="&#xf8;" horiz-adv-x="563" 
d="M372 302l-156 -185q22 -16 49 -16q54 0 85.5 48.5t31.5 102.5q0 23 -10 50zM184 157l155 182q-17 13 -48 13t-55 -16.5t-36.5 -41.5t-18.5 -48.5t-6 -43.5q0 -27 9 -45zM138 27l-65 -77l-37 33l63 74q-64 64 -64 153q0 104 77 178t185 74q73 0 121 -30l62 73l38 -31
l-60 -70q64 -59 64 -156q0 -109 -74.5 -183t-183.5 -74q-69 0 -126 36z" />
    <glyph glyph-name="ugrave" unicode="&#xf9;" 
d="M518 454l-64 -454h-135l8 51q-70 -59 -147 -59q-75 0 -108 49.5t-22 124.5l41 288h135l-34 -241q-17 -121 36 -121t114 66l41 296h135zM371 504h-73l-177 172h161z" />
    <glyph glyph-name="uacute" unicode="&#xfa;" 
d="M518 454l-64 -454h-135l8 51q-70 -59 -147 -59q-75 0 -108 49.5t-22 124.5l41 288h135l-34 -241q-17 -121 36 -121t114 66l41 296h135zM226 504l89 172h161l-177 -172h-73z" />
    <glyph glyph-name="ucircumflex" unicode="&#xfb;" 
d="M518 454l-64 -454h-135l8 51q-70 -59 -147 -59q-75 0 -108 49.5t-22 124.5l41 288h135l-34 -241q-17 -121 36 -121t114 66l41 296h135zM415 676l59 -160h-82l-61 91l-100 -91h-91l126 160h149z" />
    <glyph glyph-name="udieresis" unicode="&#xfc;" 
d="M518 454l-64 -454h-135l8 51q-70 -59 -147 -59q-75 0 -108 49.5t-22 124.5l41 288h135l-34 -241q-17 -121 36 -121t114 66l41 296h135zM417 663q27 0 46 -19t19 -46t-19 -46.5t-46 -19.5t-46.5 19.5t-19.5 46.5t19.5 46t46.5 19zM215 663q27 0 46 -19t19 -46t-19 -46.5
t-46 -19.5t-46.5 19.5t-19.5 46.5t19.5 46t46.5 19z" />
    <glyph glyph-name="yacute" unicode="&#xfd;" horiz-adv-x="490" 
d="M510 454l-330 -684h-142l132 272l-145 412h135l89 -265l120 265h141zM195 504l89 172h161l-177 -172h-73z" />
    <glyph glyph-name="thorn" unicode="&#xfe;" horiz-adv-x="583" 
d="M251 356l-34 -246q21 -9 41 -9q77 0 113 50t36 110t-40.5 85.5t-115.5 9.5zM34 -230l128 912h135l-32 -228q22 4 44 6q28 2 39 2q89 0 144 -54.5t55 -143.5q0 -114 -83 -193.5t-202 -79.5q-25 0 -61 9l-32 -230h-135z" />
    <glyph glyph-name="ydieresis" unicode="&#xff;" horiz-adv-x="490" 
d="M510 454l-330 -684h-142l132 272l-145 412h135l89 -265l120 265h141zM386 663q27 0 46 -19t19 -46t-19 -46.5t-46 -19.5t-46.5 19.5t-19.5 46.5t19.5 46t46.5 19zM184 663q27 0 46 -19t19 -46t-19 -46.5t-46 -19.5t-46.5 19.5t-19.5 46.5t19.5 46t46.5 19z" />
    <glyph glyph-name="dotlessi" unicode="&#x131;" horiz-adv-x="260" 
d="M228 454l-64 -454h-135l64 454h135z" />
    <glyph glyph-name="Lslash" unicode="&#x141;" horiz-adv-x="531" 
d="M281 682l-31 -222l157 127l-17 -115l-156 -127l-33 -231h310l-16 -114h-455l32 230l-73 -60l17 117l73 59l47 336h145z" />
    <glyph glyph-name="lslash" unicode="&#x142;" horiz-adv-x="260" 
d="M293 500l-14 -103l-64 -52l-48 -345h-135l33 237l-52 -42l14 105l53 43l48 339h135l-33 -232z" />
    <glyph glyph-name="OE" unicode="&#x152;" horiz-adv-x="1052" 
d="M977 408l-16 -114h-259l-26 -180h363l-16 -114h-649q-149 0 -236.5 83t-87.5 220q0 53 14.5 105.5t46.5 102t78 87.5t113 61t147 23h590l-16 -114h-283l-22 -160h259zM531 114l64 454h-113q-135 0 -208.5 -71.5t-73.5 -188.5q0 -194 210 -194h121z" />
    <glyph glyph-name="oe" unicode="&#x153;" horiz-adv-x="792" 
d="M754 209h-284q-9 -56 20.5 -82t85.5 -26q68 0 158 36l-24 -111q-72 -35 -152 -35q-95 0 -167 57q-76 -57 -147 -57q-87 0 -146 64t-59 158q0 105 69 177t169 72q43 0 75.5 -13t67.5 -45q71 58 156 58q94 0 149 -71.5t29 -181.5zM480 285h155q6 39 -12.5 58t-50.5 19
q-34 0 -55.5 -18t-36.5 -59zM341 268q0 38 -18.5 61t-49.5 23q-39 0 -66.5 -46t-27.5 -112q0 -43 17.5 -68t47.5 -25q48 0 72.5 52t24.5 115z" />
    <glyph glyph-name="Scaron" unicode="&#x160;" horiz-adv-x="521" 
d="M509 637l-20 -120q-34 25 -82.5 42.5t-86.5 17.5q-41 0 -68.5 -21t-27.5 -54q0 -26 26 -49.5t63 -44.5t73.5 -46.5t62.5 -67t26 -94.5q0 -88 -61 -148.5t-170 -60.5q-133 0 -232 65l22 119q42 -30 96.5 -50t96.5 -20q44 0 71 20.5t27 54.5q0 31 -26 57.5t-63 48
t-73.5 46.5t-62.5 64t-26 89q0 89 68.5 147.5t171.5 58.5q104 0 195 -54zM263 740l-59 160h82l61 -91l100 91h91l-126 -160h-149z" />
    <glyph glyph-name="scaron" unicode="&#x161;" horiz-adv-x="375" 
d="M359 421l-11 -107q-34 17 -72.5 27.5t-58.5 10.5q-30 0 -30 -20q0 -16 23.5 -37t52 -39.5t52 -51.5t23.5 -70q0 -62 -47.5 -102t-122.5 -40q-76 0 -157 41l19 101q87 -32 124 -32q44 0 44 25q0 16 -24 37.5t-52 41t-52 49.5t-24 60q0 65 47.5 106t122.5 41q69 0 143 -41z
M155 516l-59 160h82l61 -91l100 91h91l-126 -160h-149z" />
    <glyph glyph-name="Ydieresis" unicode="&#x178;" horiz-adv-x="563" 
d="M618 682l-257 -396l-40 -286h-145l40 286l-144 396h145l88 -263l158 263h155zM457 887q27 0 46 -19t19 -46t-19 -46.5t-46 -19.5t-46.5 19.5t-19.5 46.5t19.5 46t46.5 19zM255 887q27 0 46 -19t19 -46t-19 -46.5t-46 -19.5t-46.5 19.5t-19.5 46.5t19.5 46t46.5 19z" />
    <glyph glyph-name="Zcaron" unicode="&#x17d;" horiz-adv-x="635" 
d="M699 682l-455 -568h339l-16 -114h-598l456 568h-331l17 114h588zM320 740l-59 160h82l61 -91l100 91h91l-126 -160h-149z" />
    <glyph glyph-name="zcaron" unicode="&#x17e;" horiz-adv-x="458" 
d="M457 454l-223 -342h197l-17 -112h-413l231 342h-184l16 112h393zM197 516l-59 160h82l61 -91l100 91h91l-126 -160h-149z" />
    <glyph glyph-name="florin" unicode="&#x192;" 
d="M135 415l18 103h98l15 83q12 67 47 97t112 30q71 0 133 -20l-27 -110q-45 13 -77 13q-29 0 -41 -13t-19 -52l-5 -28h101l-18 -103h-100l-85 -485q-13 -74 -47.5 -107t-112.5 -33q-75 0 -137 19l28 108q47 -10 83 -10q28 0 39 15t20 67l73 426h-98z" />
    <glyph glyph-name="circumflex" unicode="&#x2c6;" horiz-adv-x="333" 
d="M305 676l59 -160h-82l-61 91l-100 -91h-91l126 160h149z" />
    <glyph glyph-name="caron" unicode="&#x2c7;" horiz-adv-x="333" 
d="M134 516l-59 160h82l61 -91l100 91h91l-126 -160h-149z" />
    <glyph glyph-name="uni02C9" unicode="&#x2c9;" horiz-adv-x="333" 
d="M413 648l-29 -100h-387l29 100h387z" />
    <glyph glyph-name="breve" unicode="&#x2d8;" horiz-adv-x="333" 
d="M293 673h88q-6 -70 -50.5 -112.5t-111.5 -42.5q-64 0 -100 40.5t-40 114.5h88q6 -65 57 -65q50 0 69 65z" />
    <glyph glyph-name="dotaccent" unicode="&#x2d9;" horiz-adv-x="333" 
d="M203 663q27 0 46 -19t19 -46t-19 -46.5t-46 -19.5t-46.5 19.5t-19.5 46.5t19.5 46t46.5 19z" />
    <glyph glyph-name="ring" unicode="&#x2da;" horiz-adv-x="333" 
d="M221 691q41 0 70.5 -29.5t29.5 -70.5t-29.5 -70.5t-70.5 -29.5t-70.5 29.5t-29.5 70.5t29.5 70.5t70.5 29.5zM221 646q-23 0 -39 -16t-16 -39t16 -39t39 -16t39 16t16 39t-16 39t-39 16z" />
    <glyph glyph-name="ogonek" unicode="&#x2db;" horiz-adv-x="333" 
d="M359 -43v-74q-43 -12 -78 -12q-53 0 -83 18.5t-30 51.5q0 35 32 71h68q-21 -25 -21 -46q0 -14 11 -23t28 -9q25 0 73 23z" />
    <glyph glyph-name="tilde" unicode="&#x2dc;" horiz-adv-x="333" 
d="M105 515h-64q0 71 25 109t72 38q32 0 76 -24t55 -24q31 0 38 48h64q1 -70 -25.5 -109t-72.5 -39q-26 0 -72 24t-58 24q-35 0 -38 -47z" />
    <glyph glyph-name="hungarumlaut" unicode="&#x2dd;" horiz-adv-x="333" 
d="M59 512l37 164h127l-103 -164h-61zM226 512l37 164h127l-103 -164h-61z" />
    <glyph glyph-name="uni03A9" unicode="&#x3a9;" horiz-adv-x="669" 
d="M140 105l1 3q-98 110 -76 268q18 128 111.5 218.5t221.5 90.5q67 0 118.5 -27.5t79.5 -71.5t39 -96.5t4 -106.5q-12 -86 -55 -157.5t-99 -117.5v-3h128l-15 -105h-253l10 77q120 74 149 277q13 94 -18.5 158.5t-103.5 64.5q-71 0 -123.5 -64t-66.5 -164t7.5 -171.5
t64.5 -100.5l-11 -77h-253l13 105h127z" />
    <glyph glyph-name="uni03BC" unicode="&#x3bc;" horiz-adv-x="615" 
d="M143 454h133l-59 -247q-13 -55 4.5 -90.5t74.5 -35.5q91 0 118 111l64 262h133l-109 -454h-120l11 42l-2 2q-48 -53 -110 -53q-75 0 -102 59h-2l-54 -225h-133z" />
    <glyph glyph-name="pi" unicode="&#x3c0;" horiz-adv-x="577" 
d="M576 397h-65l-36 -254q-13 -90 -8 -143h-125q-13 30 3 138l36 259h-124q-17 -89 -50 -207.5t-66 -189.5h-125q35 84 68.5 201t45.5 196q-60 0 -92 -9l-3 86q46 34 164 34h402z" />
    <glyph glyph-name="endash" unicode="&#x2013;" horiz-adv-x="500" 
d="M506 298v-134h-512v134h512z" />
    <glyph glyph-name="emdash" unicode="&#x2014;" horiz-adv-x="1000" 
d="M1006 298v-134h-1012v134h1012z" />
    <glyph glyph-name="quoteleft" unicode="&#x2018;" horiz-adv-x="260" 
d="M300 691l-15 -61q-64 -15 -86 -72q48 -27 48 -76q0 -34 -24 -57t-60 -23q-40 0 -68 31t-28 74q0 72 64 128t169 56z" />
    <glyph glyph-name="quoteright" unicode="&#x2019;" horiz-adv-x="260" 
d="M48 402l15 61q64 15 86 72q-48 27 -48 76q0 34 24 57t60 23q40 0 68 -31t28 -74q0 -72 -64 -128t-169 -56z" />
    <glyph glyph-name="quotesinglbase" unicode="&#x201a;" horiz-adv-x="260" 
d="M-45 -145l15 61q64 15 86 72q-48 27 -48 76q0 34 24 57t60 23q40 0 68 -31t28 -74q0 -72 -64 -128t-169 -56z" />
    <glyph glyph-name="quotedblleft" unicode="&#x201c;" horiz-adv-x="490" 
d="M544 691l-15 -61q-64 -15 -86 -72q48 -27 48 -76q0 -34 -24 -57t-60 -23q-40 0 -68 31t-28 74q0 72 64 128t169 56zM286 691l-15 -61q-64 -15 -86 -72q48 -27 48 -76q0 -34 -24 -57t-60 -23q-40 0 -68 31t-28 74q0 72 64 128t169 56z" />
    <glyph glyph-name="quotedblright" unicode="&#x201d;" horiz-adv-x="490" 
d="M295 402l15 61q64 15 86 72q-48 27 -48 76q0 34 24 57t60 23q40 0 68 -31t28 -74q0 -72 -64 -128t-169 -56zM38 402l15 61q64 15 86 72q-48 27 -48 76q0 34 24 57t60 23q40 0 68 -31t28 -74q0 -72 -64 -128t-169 -56z" />
    <glyph glyph-name="quotedblbase" unicode="&#x201e;" horiz-adv-x="490" 
d="M186 -145l15 61q64 15 86 72q-48 27 -48 76q0 34 24 57t60 23q40 0 68 -31t28 -74q0 -72 -64 -128t-169 -56zM-41 -145l15 61q64 15 86 72q-48 27 -48 76q0 34 24 57t60 23q40 0 68 -31t28 -74q0 -72 -64 -128t-169 -56z" />
    <glyph glyph-name="dagger" unicode="&#x2020;" horiz-adv-x="531" 
d="M257 423q-10 86 -10 137q0 131 82 131q28 0 45.5 -19.5t17.5 -55.5q0 -61 -63 -194q87 40 131 40q31 0 46.5 -18.5t15.5 -44.5q0 -29 -21 -49t-61 -20q-54 0 -123 36q-1 -39 -2 -145.5t-2.5 -151.5t-7 -114.5t-17.5 -106.5t-31 -56q-22 -22 -47 -22q-34 0 -52 26.5
t-18 71.5q0 101 110 498q-90 -36 -132 -36q-31 0 -49.5 20t-18.5 44q0 28 21 48t57 20q59 0 129 -39z" />
    <glyph glyph-name="daggerdbl" unicode="&#x2021;" horiz-adv-x="510" 
d="M307 395q-18 -75 0 -163q-43 -81 -51 -166q82 43 128 43q30 0 49 -17t19 -50q0 -23 -16.5 -43t-47.5 -20q-51 0 -132 50q-1 -31 9.5 -83.5t10.5 -79.5q0 -48 -23 -72t-53 -24t-50 22t-20 56q0 29 14.5 64.5t33 68.5t22.5 49q-93 -51 -138 -51q-30 0 -48 18.5t-18 46.5
q0 26 18.5 46t53.5 20q49 0 137 -44q8 96 -8 165q49 103 59 166q-73 -47 -128 -47q-35 0 -52.5 21t-17.5 47t16.5 44t47.5 18q41 0 134 -49q1 24 -10 85.5t-11 81.5q0 39 23.5 66t53.5 27q32 0 51 -22t19 -54q0 -37 -31 -96t-39 -88q98 49 138 49q31 0 47.5 -19t16.5 -44
q0 -32 -20 -50t-47 -18q-39 0 -140 46z" />
    <glyph glyph-name="bullet" unicode="&#x2022;" horiz-adv-x="354" 
d="M188 485q60 0 102 -42t42 -102t-42 -102t-102 -42t-102 42t-42 102t42 102t102 42z" />
    <glyph glyph-name="ellipsis" unicode="&#x2026;" horiz-adv-x="1000" 
d="M890 78q0 -36 -25.5 -61.5t-61.5 -25.5t-61.5 25.5t-25.5 61.5t25.5 61.5t61.5 25.5t61.5 -25.5t25.5 -61.5zM557 78q0 -36 -25.5 -61.5t-61.5 -25.5t-61.5 25.5t-25.5 61.5t25.5 61.5t61.5 25.5t61.5 -25.5t25.5 -61.5zM224 78q0 -36 -25.5 -61.5t-61.5 -25.5
t-61.5 25.5t-25.5 61.5t25.5 61.5t61.5 25.5t61.5 -25.5t25.5 -61.5z" />
    <glyph glyph-name="perthousand" unicode="&#x2030;" horiz-adv-x="1083" 
d="M267 530q0 31 -21 53t-50 22q-30 0 -50.5 -21.5t-20.5 -53.5q0 -30 21 -52.5t50 -22.5q30 0 50.5 21.5t20.5 53.5zM357 530q0 -66 -47 -113.5t-114 -47.5t-114 47.5t-47 113.5q0 67 47 114t114 47t114 -47t47 -114zM649 691l-477 -699h-83l480 699h80zM1074 152
q0 -66 -47 -113.5t-114 -47.5t-114 47.5t-47 113.5q0 67 47 114t114 47t114 -47t47 -114zM984 152q0 31 -21 53t-50 22q-30 0 -50.5 -21.5t-20.5 -53.5q0 -30 21 -52.5t50 -22.5q30 0 50.5 21.5t20.5 53.5zM705 152q0 -66 -47 -113.5t-114 -47.5t-114 47.5t-47 113.5
q0 67 47 114t114 47t114 -47t47 -114zM615 152q0 31 -21 53t-50 22q-30 0 -50.5 -21.5t-20.5 -53.5q0 -30 21 -52.5t50 -22.5q30 0 50.5 21.5t20.5 53.5z" />
    <glyph glyph-name="guilsinglleft" unicode="&#x2039;" horiz-adv-x="271" 
d="M298 461l-164 -230l67 -231h-113l-73 255l151 206h132z" />
    <glyph glyph-name="guilsinglright" unicode="&#x203a;" horiz-adv-x="271" 
d="M-21 0l164 230l-67 231h113l73 -255l-151 -206h-132z" />
    <glyph glyph-name="fraction" unicode="&#x2044;" horiz-adv-x="188" 
d="M377 691l-479 -718h-88l479 718h88z" />
    <glyph glyph-name="Euro" unicode="&#x20ac;" horiz-adv-x="575" 
d="M106 235h-86l14 77h67q0 13 4 60h-85l14 77h89q80 242 326 242q54 0 128 -12l-18 -116q-58 12 -101 12q-123 0 -182 -126h266l-15 -77h-275q-7 -35 -7 -60h274l-15 -77h-255q13 -66 43.5 -97t84.5 -31q71 0 166 50l-13 -133q-81 -33 -165 -33q-220 0 -259 244z" />
    <glyph glyph-name="afii61289" unicode="&#x2113;" horiz-adv-x="493" 
d="M416 184l44 -54q-88 -136 -220 -136q-82 0 -118 43.5t-34 112.5q0 2 0.5 5.5t0.5 5.5q-51 -36 -54 -38l-22 68q81 61 88 67l34 240q17 122 74.5 184.5t134.5 62.5q67 0 94.5 -48.5t16.5 -125.5q-21 -150 -232 -331l-5 -43q-6 -47 12.5 -73t54.5 -26q65 0 131 86zM259 498
l-19 -140q123 127 136 219q11 76 -38 76q-24 0 -45.5 -36t-33.5 -119z" />
    <glyph glyph-name="trademark" unicode="&#x2122;" horiz-adv-x="1000" 
d="M229 316v330h-123v70h324v-70h-120v-330h-81zM478 316v400h127l72 -276h2l72 276h127v-400h-77v319h-2l-85 -319h-73l-84 319h-2v-319h-77z" />
    <glyph glyph-name="Omega" unicode="&#x2126;" horiz-adv-x="669" 
d="M140 105l1 3q-98 110 -76 268q18 128 111.5 218.5t221.5 90.5q67 0 118.5 -27.5t79.5 -71.5t39 -96.5t4 -106.5q-12 -86 -55 -157.5t-99 -117.5v-3h128l-15 -105h-253l10 77q120 74 149 277q13 94 -18.5 158.5t-103.5 64.5q-71 0 -123.5 -64t-66.5 -164t7.5 -171.5
t64.5 -100.5l-11 -77h-253l13 105h127z" />
    <glyph glyph-name="estimated" unicode="&#x212e;" horiz-adv-x="906" 
d="M873 331h-630q-5 0 -5 -4v-190q0 -12 8 -22q101 -104 238 -104q150 0 251 116h56q-53 -63 -134.5 -99t-173.5 -36q-161 0 -274.5 102t-113.5 247t113.5 247t274.5 102q162 0 276 -102t114 -247v-10zM730 356v192q0 13 -10 22q-102 100 -236 100q-136 0 -237 -103
q-9 -9 -9 -24v-187q0 -6 5 -6h482q5 0 5 6z" />
    <glyph glyph-name="partialdiff" unicode="&#x2202;" 
d="M150 613l-22 97q84 56 185 56q112 0 175 -96.5t39 -271.5q-27 -185 -114 -293.5t-213 -108.5q-64 0 -106.5 36.5t-56 87t-5.5 105.5q16 115 85 184.5t157 69.5q50 0 83 -24t43 -49h1q1 5 5 30q13 90 -21.5 156t-103.5 66q-68 0 -131 -45zM228 104h1q47 0 87 60t59 135
q-5 27 -28 51.5t-61 24.5q-46 0 -82 -46t-45 -109q-7 -49 12 -82.5t57 -33.5z" />
    <glyph glyph-name="Delta" unicode="&#x2206;" horiz-adv-x="625" 
d="M-9 0l9 75l301 614h154l121 -612l-11 -77h-574zM137 104h305l-60 270q-3 23 -14.5 86.5t-13.5 86.5h-3q-6 -19 -33 -77t-37 -82z" />
    <glyph glyph-name="product" unicode="&#x220f;" horiz-adv-x="750" 
d="M726 557h-95v-650h-128v650h-196v-650h-128v650h-96v118h643v-118z" />
    <glyph glyph-name="summation" unicode="&#x2211;" horiz-adv-x="591" 
d="M574 -93h-492v83l226 302l-218 292v91h468v-110h-296v-3l191 -249l-213 -283v-3h334v-120z" />
    <glyph glyph-name="minus" unicode="&#x2212;" horiz-adv-x="584" 
d="M55 289v128h500v-128h-500z" />
    <glyph glyph-name="uni2215" unicode="&#x2215;" horiz-adv-x="188" 
d="M377 691l-479 -718h-88l479 718h88z" />
    <glyph glyph-name="uni2219" unicode="&#x2219;" horiz-adv-x="260" 
d="M233 346q0 -36 -25.5 -61.5t-61.5 -25.5t-61.5 25.5t-25.5 61.5t25.5 61.5t61.5 25.5t61.5 -25.5t25.5 -61.5z" />
    <glyph glyph-name="radical" unicode="&#x221a;" horiz-adv-x="630" 
d="M639 811l-214 -944h-102l-139 418l-71 -28l-20 72l167 68l95 -297q14 -64 19 -86l1 -1q2 8 7 41t9 53l159 704h89z" />
    <glyph glyph-name="infinity" unicode="&#x221e;" horiz-adv-x="772" 
d="M727 279v-1q0 -76 -46.5 -122t-109.5 -46q-90 0 -170 108q-42 -53 -83 -80.5t-94 -27.5q-61 0 -106.5 46t-45.5 117q0 73 45.5 119.5t115.5 46.5q91 0 171 -105l12 13q11 13 13 15t13 14t15 15t15.5 12t18 12.5t18 9.5t21.5 8t22 4t25 2q64 0 107 -44.5t43 -115.5z
M233 180h2q24 0 49 15t39.5 30.5t39.5 44.5q-21 29 -30 40t-27 29t-36 25t-40 7q-40 0 -63 -27.5t-23 -71.5q0 -39 25.5 -65.5t63.5 -26.5zM570 371h-1q-14 0 -28 -5t-24 -11t-23 -18.5t-19.5 -19.5t-19 -21.5t-15.5 -18.5q43 -56 71 -76.5t63 -20.5q37 0 59 29t22 64
q0 43 -23.5 70.5t-61.5 27.5z" />
    <glyph glyph-name="integral" unicode="&#x222b;" horiz-adv-x="446" 
d="M424 825l-12 -89q-20 8 -34 8q-31 0 -47 -25q-25 -33 -25 -161q0 -77 7 -223.5t7 -236.5q0 -131 -34 -194q-37 -72 -128 -72q-47 0 -75 15l16 92q23 -10 41 -10q27 0 41 19q25 36 25 148q0 91 -7.5 242t-7.5 232q0 85 13.5 136t45.5 84q42 46 115 46q35 0 59 -11z" />
    <glyph glyph-name="approxequal" unicode="&#x2248;" horiz-adv-x="548" 
d="M467 438l45 -41q-24 -46 -57.5 -73.5t-72.5 -27.5q-43 0 -106 38q-50 32 -81 32q-20 0 -37.5 -11.5t-26.5 -22.5t-24 -34l-45 41q22 44 59 72t80 28q10 0 18.5 -1t17.5 -3.5t15 -4.5t14.5 -6.5t11.5 -6t12.5 -7t10.5 -6.5q3 -2 10 -6t9 -5.5t8 -5t8.5 -5t7.5 -4t7.5 -3.5
t7 -2.5t8 -2t7.5 -1t8 -0.5q26 0 44.5 17t40.5 52zM467 257l45 -42q-53 -100 -131 -100q-43 0 -105 38q-50 33 -81 33q-20 0 -37.5 -12.5t-25 -22t-25.5 -34.5l-45 41q22 44 59 72t80 28q13 0 24.5 -2t24.5 -7t18 -7t19 -10l14 -8q5 -3 16.5 -10.5t17 -10.5t14.5 -7.5t17 -6
t16 -1.5q26 0 44 17t41 52z" />
    <glyph glyph-name="notequal" unicode="&#x2260;" horiz-adv-x="559" 
d="M424 495l-36 -83h126v-74h-154l-55 -128h209v-74h-237l-46 -108l-58 23l37 85h-127v74h155l54 128h-209v74h237l46 106z" />
    <glyph glyph-name="lessequal" unicode="&#x2264;" horiz-adv-x="571" 
d="M524 96l-424 214v80l424 214v-86l-351 -166v-3l351 -166v-87zM528 -15h-431v76h431v-76z" />
    <glyph glyph-name="greaterequal" unicode="&#x2265;" horiz-adv-x="571" 
d="M102 604l424 -214v-80l-423 -214v87l350 166v2l-351 167v86zM526 -15h-428v76h428v-76z" />
    <glyph glyph-name="lozenge" unicode="&#x25ca;" horiz-adv-x="629" 
d="M583 337l-188 -385h-103l-182 385l187 385h104zM470 334l-103 223q-14 36 -18 60h-4q-5 -26 -18 -60l-104 -218l104 -227q8 -22 16 -56h5q8 37 16 55z" />
    </font>
</defs>
</svg>
