<?xml version="1.0" standalone="no"?>
<!DOCTYPE svg PUBLIC "-//W3C//DTD SVG 1.1//EN" "http://www.w3.org/Graphics/SVG/1.1/DTD/svg11.dtd" >
<svg xmlns="http://www.w3.org/2000/svg" xmlns:xlink="http://www.w3.org/1999/xlink" version="1.1">
<metadata>
Created by FontForge 20170731 at Thu May 15 14:16:50 2003
 By ,,,
Copyright (c) 1990, 1991, 1998, 2002 Adobe Systems Incorporated.  All Rights Reserved.  (c) Copyright 1989, 1990, 1998, 2002 The Monotype Corporation PLC. All Rights Reserved.
</metadata>
<defs>
<font id="GillSansStd" horiz-adv-x="500" >
  <font-face 
    font-family="Gill Sans Std"
    font-weight="400"
    font-stretch="normal"
    units-per-em="1000"
    panose-1="2 11 5 2 2 1 4 2 2 3"
    ascent="682"
    descent="-318"
    x-height="449"
    cap-height="682"
    bbox="-162 -250 1041 911"
    underline-thickness="50"
    underline-position="-200"
    unicode-range="U+0020-FB02"
  />
<missing-glyph 
d="M0 0v700h500v-700h-500zM250 395l170 255h-340zM280 350l170 -255v510zM80 50h340l-170 255zM50 605v-510l170 255z" />
    <glyph glyph-name="f_i" unicode="fi" 
d="M269 449v-75h-100v-374h-89v374h-67v75h67q-2 121 47 181.5t143 60.5q75 0 120.5 -39t47.5 -104h-89q-23 63 -81 63q-109 0 -99 -162h100zM438 449v-449h-89v449h89z" />
    <glyph glyph-name="f_l" unicode="fl" 
d="M303 682v-82q-13 11 -39 11q-97 0 -97 -116v-46h100v-75h-100v-374h-89v374h-69v75h69v33q0 62 14.5 99t43.5 66q65 65 167 35zM436 682v-682h-89v682h89z" />
    <glyph glyph-name=".notdef" 
d="M0 0v700h500v-700h-500zM250 395l170 255h-340zM280 350l170 -255v510zM80 50h340l-170 255zM50 605v-510l170 255z" />
    <glyph glyph-name=".null" horiz-adv-x="0" 
 />
    <glyph glyph-name="nonmarkingreturn" horiz-adv-x="333" 
 />
    <glyph glyph-name="space" unicode=" " horiz-adv-x="278" 
 />
    <glyph glyph-name="exclam" unicode="!" horiz-adv-x="271" 
d="M79 543q0 148 56 148t56 -148q0 -66 -6 -107l-25 -172q-9 -63 -25 -63t-25 63l-25 172q-6 41 -6 107zM136 111q25 0 42.5 -17.5t17.5 -42.5t-17.5 -42.5t-42.5 -17.5t-42.5 17.5t-17.5 42.5t17.5 42.5t42.5 17.5z" />
    <glyph glyph-name="quotedbl" unicode="&#x22;" horiz-adv-x="354" 
d="M241 462l-23 137v117h88v-117l-23 -137h-42zM71 462l-23 137v117h88v-117l-23 -137h-42z" />
    <glyph glyph-name="numbersign" unicode="#" horiz-adv-x="584" 
d="M196 617h72l-41 -195h194l41 195h72l-41 -195h91v-69h-105l-36 -170h141v-69h-155l-41 -195h-72l41 195h-194l-41 -195h-72l41 195h-90v69h104l36 170h-140v69h154zM213 353l-36 -170h194l36 170h-194z" />
    <glyph glyph-name="dollar" unicode="$" horiz-adv-x="542" 
d="M470 596v-108q-26 26 -67.5 48t-81.5 31v-198q85 -23 133 -74t48 -119q0 -65 -47.5 -120.5t-133.5 -64.5v-109h-82v109q-75 4 -188 70v121q50 -45 88 -66t100 -35v216q-91 24 -139 72.5t-48 102.5q0 73 50 121.5t137 61.5v36h82v-36q35 -3 78.5 -20t70.5 -39zM239 396
v171q-39 -5 -64 -28t-25 -54q0 -59 89 -89zM321 262v-180q85 20 85 86q0 31 -19.5 53.5t-65.5 40.5z" />
    <glyph glyph-name="percent" unicode="%" horiz-adv-x="680" 
d="M502 222q-32 0 -55.5 -23.5t-23.5 -55.5q0 -33 23.5 -56t55.5 -23q33 0 56 23t23 56q0 32 -23 55.5t-56 23.5zM502 296q62 0 107.5 -45t45.5 -108t-45.5 -108t-107.5 -45q-63 0 -108 44.5t-45 108.5q0 63 45 108t108 45zM602 691l-449 -701h-75l449 701h75zM178 690
q62 0 107.5 -45t45.5 -108t-45.5 -108t-107.5 -45q-63 0 -108 44.5t-45 108.5q0 63 45 108t108 45zM178 616q-32 0 -55.5 -23.5t-23.5 -55.5q0 -33 23.5 -56t55.5 -23q33 0 56 23t23 56q0 32 -23 55.5t-56 23.5z" />
    <glyph glyph-name="ampersand" unicode="&#x26;" horiz-adv-x="625" 
d="M495 339h98q-31 -89 -111 -179l138 -160h-126l-78 93q-113 -102 -216 -102q-70 0 -121 47t-51 115q0 108 161 201q-77 81 -77 158q0 71 48 114t127 43q71 0 117.5 -42.5t46.5 -105.5q0 -50 -29.5 -93t-95.5 -89l96 -110q44 44 73 110zM356 161l-111 128
q-63 -40 -91 -69.5t-28 -66.5q2 -29 26.5 -50.5t57.5 -21.5q66 0 146 80zM208 521q0 -55 63 -116q52 33 70.5 58t18.5 53q0 30 -22 50t-56 20q-32 0 -53 -18.5t-21 -46.5z" />
    <glyph glyph-name="quotesingle" unicode="'" horiz-adv-x="188" 
d="M73 462l-23 137v117h88v-117l-23 -137h-42z" />
    <glyph glyph-name="parenleft" unicode="(" horiz-adv-x="323" 
d="M167 232q0 -270 144 -462h-53q-90 89 -142 212.5t-52 249.5t52 249.5t142 212.5h53q-144 -192 -144 -462z" />
    <glyph glyph-name="parenright" unicode=")" horiz-adv-x="323" 
d="M156 232q0 270 -144 462h53q90 -89 142 -212.5t52 -249.5t-52 -249.5t-142 -212.5h-53q144 192 144 462z" />
    <glyph glyph-name="asterisk" unicode="*" horiz-adv-x="417" 
d="M177 513l-128 44q-21 7 -32.5 23t-0.5 35q14 18 31.5 16t34.5 -17l100 -87q11 9 20 11l-25 130q-4 21 3.5 39.5t29.5 18.5t29 -17.5t3 -40.5l-25 -130q13 -3 20 -12l100 87q16 14 33.5 16.5t32.5 -16.5q11 -19 -0.5 -34t-33.5 -23l-125 -43q2 -6 0 -23l125 -43
q21 -7 32.5 -23t0.5 -35q-14 -18 -31.5 -16t-34.5 17l-100 87q-10 -7 -20 -10l25 -131q4 -21 -3.5 -39t-29.5 -19q-42 1 -32 58l25 131q-12 5 -19 12l-101 -88q-16 -14 -34 -16t-32 16q-11 19 0.5 34t33.5 23l127 44q-4 10 1 21z" />
    <glyph glyph-name="plus" unicode="+" horiz-adv-x="584" 
d="M251 589h82v-195h195v-82h-195v-195h-82v195h-195v82h195v195z" />
    <glyph glyph-name="comma" unicode="," horiz-adv-x="219" 
d="M59 -118v19q24 16 33.5 48.5t2.5 60.5q-22 1 -35.5 16t-13.5 40t16.5 41t42.5 16q32 0 51.5 -26.5t19.5 -70.5q0 -46 -30.5 -87t-86.5 -57z" />
    <glyph glyph-name="hyphen" unicode="-" horiz-adv-x="323" 
d="M283 267v-93h-243v93h243z" />
    <glyph glyph-name="period" unicode="." horiz-adv-x="219" 
d="M109 111q25 0 42.5 -17.5t17.5 -42.5t-17.5 -42.5t-42.5 -17.5t-42.5 17.5t-17.5 42.5t17.5 42.5t42.5 17.5z" />
    <glyph glyph-name="slash" unicode="/" horiz-adv-x="281" 
d="M8 -9l196 700h70l-196 -700h-70z" />
    <glyph glyph-name="zero" unicode="0" 
d="M470 341q0 -157 -60.5 -253.5t-159.5 -96.5t-159.5 96.5t-60.5 253.5q0 158 60.5 254t159.5 96t159.5 -96t60.5 -254zM372 341q0 120 -32.5 188.5t-89.5 68.5t-89.5 -68.5t-32.5 -188.5t32.5 -188.5t89.5 -68.5t89.5 68.5t32.5 188.5z" />
    <glyph glyph-name="one" unicode="1" 
d="M300 682v-682h-98v682h98z" />
    <glyph glyph-name="two" unicode="2" 
d="M466 93v-93h-432v7q163 198 218 283q10 16 19 31q27 46 37.5 76t10.5 70q0 56 -33 92t-84 36q-82 0 -154 -92v123q81 65 161 65q92 0 150 -59.5t58 -153.5q0 -80 -46.5 -161.5t-165.5 -223.5h261z" />
    <glyph glyph-name="three" unicode="3" 
d="M81 569v93q59 29 131 29q91 0 146 -48.5t55 -129.5q0 -57 -20 -92t-67 -61q48 -15 73 -60t25 -102q0 -91 -60 -149t-155 -58q-69 0 -145 39v106q77 -52 152 -52q50 0 80 29.5t30 79.5q0 53 -38 85.5t-108 28.5v90q67 0 101 26t34 73t-32 74.5t-86 27.5q-51 0 -116 -29z
" />
    <glyph glyph-name="four" unicode="4" 
d="M398 691v-379h73v-88h-73v-224h-98v224h-289v45l345 422h42zM298 506l-156 -194h158v194h-2z" />
    <glyph glyph-name="five" unicode="5" 
d="M404 682v-88h-214v-171q113 7 180.5 -55t67.5 -159q0 -95 -63 -156.5t-160 -61.5q-82 0 -165 42v101q74 -50 149 -50q58 0 99.5 36.5t41.5 86.5q0 70 -66 108t-173 12v355h303z" />
    <glyph glyph-name="six" unicode="6" 
d="M317 691l59 -75q-73 -42 -130.5 -110.5t-78.5 -139.5q54 28 107 28q82 0 136.5 -57t54.5 -142q0 -83 -59.5 -143.5t-141.5 -60.5q-98 0 -159 67t-61 175q0 130 71 250t202 208zM146 265q-18 -79 18 -130t94 -51q49 0 79 31t30 81q0 45 -32 75t-81 30q-31 0 -53.5 -7.5
t-54.5 -28.5z" />
    <glyph glyph-name="seven" unicode="7" 
d="M490 682l-309 -691l-87 38l250 560h-295v93h441z" />
    <glyph glyph-name="eight" unicode="8" 
d="M468 184q0 -82 -62.5 -137.5t-153.5 -55.5q-93 0 -156.5 56t-63.5 138q0 106 97 163q-81 59 -81 147q0 84 60 140t149 56q86 0 143.5 -56.5t57.5 -141.5q0 -89 -85 -145q46 -24 70.5 -67.5t24.5 -96.5zM360 495q0 44 -29.5 73.5t-75.5 29.5q-49 0 -79 -27.5t-30 -73.5
q0 -42 32 -73t75 -31q44 0 75.5 30.5t31.5 71.5zM370 192q0 47 -33 77.5t-85 30.5q-55 0 -88.5 -30t-33.5 -78q0 -47 34 -77.5t86 -30.5q57 0 88.5 31.5t31.5 76.5z" />
    <glyph glyph-name="nine" unicode="9" 
d="M187 -9l-60 72q85 55 139.5 123t68.5 133q-48 -29 -106 -29q-81 0 -137 58t-56 141q0 80 58.5 141t149.5 61q94 0 155.5 -70.5t61.5 -178.5q0 -124 -77 -251t-197 -200zM134 490q0 -44 34 -75.5t82 -31.5q52 0 105 37q5 24 5 55q0 50 -33.5 86.5t-80.5 36.5
q-49 0 -80.5 -30.5t-31.5 -77.5z" />
    <glyph glyph-name="colon" unicode=":" horiz-adv-x="219" 
d="M109 458q25 0 42.5 -17.5t17.5 -42.5t-17.5 -42.5t-42.5 -17.5t-42.5 17.5t-17.5 42.5t17.5 42.5t42.5 17.5zM109 111q25 0 42.5 -17.5t17.5 -42.5t-17.5 -42.5t-42.5 -17.5t-42.5 17.5t-17.5 42.5t17.5 42.5t42.5 17.5z" />
    <glyph glyph-name="semicolon" unicode=";" horiz-adv-x="219" 
d="M61 -115v19q28 24 35 47.5t5 59.5q-24 3 -38.5 19t-14.5 40q0 29 17 45t43 16q30 0 48.5 -27t18.5 -66q0 -56 -29.5 -96.5t-84.5 -56.5zM169 398q0 -25 -17.5 -42.5t-42.5 -17.5t-42.5 17.5t-17.5 42.5t17.5 42.5t42.5 17.5t42.5 -17.5t17.5 -42.5z" />
    <glyph glyph-name="less" unicode="&#x3c;" horiz-adv-x="584" 
d="M55 313v82l474 202v-87l-376 -156l376 -156v-87z" />
    <glyph glyph-name="equal" unicode="=" horiz-adv-x="584" 
d="M56 503h472v-82h-472v82zM56 285h472v-82h-472v82z" />
    <glyph glyph-name="greater" unicode="&#x3e;" horiz-adv-x="584" 
d="M529 313l-474 -202v87l376 156l-376 156v87l474 -202v-82z" />
    <glyph glyph-name="question" unicode="?" horiz-adv-x="333" 
d="M82 595l47 96q81 1 121 -44t40 -101q0 -50 -25.5 -106.5t-55.5 -97t-52.5 -87t-17.5 -80.5q-59 29 -59 92q0 45 28 92.5t56 92t28 82.5q0 30 -18 48.5t-48 18.5q-11 0 -44 -6zM154 111q25 0 42.5 -17.5t17.5 -42.5t-17.5 -42.5t-42.5 -17.5t-42.5 17.5t-17.5 42.5
t17.5 42.5t42.5 17.5z" />
    <glyph glyph-name="at" unicode="@" horiz-adv-x="1010" 
d="M891 9h90q-133 -219 -433 -219q-230 0 -362 117t-132 322q0 66 16 133t53 134t91.5 118t138 83t184.5 32q182 0 300.5 -107.5t118.5 -273.5q0 -87 -41.5 -168.5t-109.5 -131.5t-141 -50q-97 0 -97 82q-70 -81 -148 -81q-77 0 -128 62.5t-51 158.5q0 117 79 213t175 96
q93 0 147 -90l17 76h88l-82 -377q-13 -60 32 -60q17 0 46.5 17.5t61.5 49t55.5 86.5t23.5 118q0 133 -99.5 221t-250.5 88q-175 0 -290.5 -119.5t-115.5 -301.5q0 -178 111 -276.5t311 -98.5q120 0 207.5 40t134.5 107zM331 213q0 -64 30 -103t78 -39q65 0 119.5 76.5
t54.5 168.5q0 65 -30.5 103.5t-82.5 38.5q-65 0 -117 -75.5t-52 -169.5z" />
    <glyph glyph-name="A" unicode="A" horiz-adv-x="667" 
d="M362 686l305 -686h-100l-91 201h-290l-86 -201h-100l293 686h69zM326 536l-102 -247h212z" />
    <glyph glyph-name="B" unicode="B" horiz-adv-x="563" 
d="M75 0v682h198q103 0 156.5 -51.5t53.5 -122.5q0 -104 -104 -146v-2q77 -14 120.5 -61.5t43.5 -116.5q0 -73 -58 -127.5t-176 -54.5h-234zM173 594v-204h65q144 0 144 109q0 95 -119 95h-90zM173 302v-214h123q79 0 112.5 31.5t33.5 76.5q0 48 -38 77t-113 29h-118z" />
    <glyph glyph-name="C" unicode="C" horiz-adv-x="708" 
d="M656 635v-105q-122 71 -235 71q-117 0 -194.5 -74.5t-77.5 -186.5q0 -115 76.5 -187t199.5 -72q119 0 238 77v-107q-115 -60 -247 -60q-91 0 -164.5 32.5t-116 84t-65 109.5t-22.5 114q0 156 105.5 258t268.5 102q100 0 234 -56z" />
    <glyph glyph-name="D" unicode="D" horiz-adv-x="750" 
d="M76 0v682h265q91 0 162.5 -30.5t114 -80t64.5 -108.5t22 -122q0 -138 -100 -239.5t-262 -101.5h-266zM174 594v-506h156q63 0 113 18.5t79 46t48.5 63.5t26 66.5t6.5 58.5q0 110 -71 181.5t-207 71.5h-151z" />
    <glyph glyph-name="E" unicode="E" 
d="M462 682v-88h-289v-206h279v-88h-279v-212h298v-88h-396v682h387z" />
    <glyph glyph-name="F" unicode="F" horiz-adv-x="469" 
d="M440 682v-88h-266v-189h266v-88h-266v-317h-98v682h364z" />
    <glyph glyph-name="G" unicode="G" horiz-adv-x="740" 
d="M673 336v-289q-127 -56 -260 -56q-157 0 -260 98t-103 248q0 151 105 252.5t261 101.5q60 0 111.5 -12t131.5 -46v-99q-122 67 -245 67q-111 0 -187 -75t-76 -186q0 -114 77.5 -186.5t198.5 -72.5q63 0 148 27v140h-131v88h229z" />
    <glyph glyph-name="H" unicode="H" horiz-adv-x="729" 
d="M653 682v-682h-98v297h-382v-297h-98v682h98v-297h382v297h98z" />
    <glyph glyph-name="I" unicode="I" horiz-adv-x="250" 
d="M174 682v-682h-98v682h98z" />
    <glyph glyph-name="J" unicode="J" horiz-adv-x="250" 
d="M174 682v-690q0 -102 -45 -162t-143 -60q-10 0 -30 2l-18 91h25q73 0 93 34.5t20 123.5v661h98z" />
    <glyph glyph-name="K" unicode="K" horiz-adv-x="656" 
d="M285 359l370 -359h-135l-347 337v-337h-98v682h98v-312l287 312h122z" />
    <glyph glyph-name="L" unicode="L" horiz-adv-x="490" 
d="M172 682v-594h308v-88h-406v682h98z" />
    <glyph glyph-name="M" unicode="M" horiz-adv-x="781" 
d="M709 682v-682h-98v531h-2l-210 -264h-16l-210 264h-2v-531h-98v682h92l226 -280l227 280h91z" />
    <glyph glyph-name="N" unicode="N" horiz-adv-x="781" 
d="M706 682v-682h-84l-456 525v-525h-92v682h78l462 -528v528h92z" />
    <glyph glyph-name="O" unicode="O" horiz-adv-x="823" 
d="M45 341q0 146 102 248t264 102q164 0 265.5 -101.5t101.5 -248.5q0 -144 -101 -247t-268 -103q-162 0 -263 103t-101 247zM146 341q0 -112 75.5 -186t189.5 -74q115 0 190.5 74t75.5 186t-75.5 186t-190.5 74q-114 0 -189.5 -74t-75.5 -186z" />
    <glyph glyph-name="P" unicode="P" horiz-adv-x="510" 
d="M70 682h213q107 0 162 -55t55 -141q0 -85 -58.5 -138t-171.5 -53h-102v-295h-98v682zM168 594v-211h111q55 0 87.5 28.5t32.5 78.5q0 44 -27.5 74t-88.5 30h-115z" />
    <glyph glyph-name="Q" unicode="Q" horiz-adv-x="823" 
d="M754 -52l-88 -87q-163 12 -335 139q-127 24 -206.5 119t-79.5 222q0 154 105 252t271 98q153 0 256 -101t103 -251q0 -124 -80 -219.5t-204 -119.5v-1q93 -39 147.5 -50t107.5 2zM417 601q-59 0 -106.5 -17.5t-77.5 -44.5t-50 -62.5t-28.5 -69.5t-8.5 -67
q0 -110 71.5 -184.5t201.5 -74.5q112 0 186 75.5t74 181.5q0 112 -74.5 187.5t-187.5 75.5z" />
    <glyph glyph-name="R" unicode="R" horiz-adv-x="604" 
d="M77 682h172q104 0 164 -51.5t60 -139.5q0 -59 -29.5 -102t-84.5 -65q29 -19 57 -51t44.5 -57.5t50.5 -80.5q27 -44 93 -135h-117l-90 140q-62 97 -100 126.5t-81 29.5h-41v-296h-98v682zM175 598v-214h63q73 0 104 31t30 80q-2 103 -134 103h-63z" />
    <glyph glyph-name="S" unicode="S" horiz-adv-x="458" 
d="M399 643v-111q-75 71 -160 71q-47 0 -77.5 -22.5t-30.5 -58.5q0 -30 22 -56t54.5 -43.5t71 -41t71 -48t54.5 -65.5t22 -92q0 -80 -54 -132.5t-137 -52.5q-107 0 -191 63v124q77 -99 180 -99q53 0 82 27t29 59q0 39 -30.5 71.5t-73.5 57.5t-86.5 52.5t-74 69t-30.5 93.5
q0 83 56.5 132.5t150.5 49.5q80 0 152 -48z" />
    <glyph glyph-name="T" unicode="T" horiz-adv-x="604" 
d="M587 682v-88h-236v-594h-98v594h-236v88h570z" />
    <glyph glyph-name="U" unicode="U" horiz-adv-x="708" 
d="M648 682v-414q0 -129 -77 -203t-226 -74q-118 0 -201 68t-83 199v424h98v-403q0 -57 9 -87t32 -53q58 -58 147 -58q105 0 160 55q43 43 43 149v397h98z" />
    <glyph glyph-name="V" unicode="V" horiz-adv-x="604" 
d="M604 682l-289 -688h-20l-295 688h98l205 -479l204 479h97z" />
    <glyph glyph-name="W" unicode="W" horiz-adv-x="1042" 
d="M1041 682l-277 -688h-19l-224 558l-226 -558h-19l-276 688h98l188 -470l189 470h93l190 -470l186 470h97z" />
    <glyph glyph-name="X" unicode="X" horiz-adv-x="708" 
d="M687 682l-272 -329l291 -353h-118l-232 282l-235 -282h-119l294 353l-273 329h119l214 -260l213 260h118z" />
    <glyph glyph-name="Y" unicode="Y" horiz-adv-x="604" 
d="M301 447l185 235h118l-253 -322v-360h-98v361l-253 321h118z" />
    <glyph glyph-name="Z" unicode="Z" horiz-adv-x="646" 
d="M450 594h-407v88h588l-434 -594h434v-88h-615z" />
    <glyph glyph-name="bracketleft" unicode="[" horiz-adv-x="333" 
d="M319 682v-80h-137v-743h137v-80h-233v903h233z" />
    <glyph glyph-name="backslash" unicode="\" horiz-adv-x="281" 
d="M274 -9h-70l-196 700h70z" />
    <glyph glyph-name="bracketright" unicode="]" horiz-adv-x="333" 
d="M14 -221v80h137v743h-137v80h233v-903h-233z" />
    <glyph glyph-name="asciicircum" unicode="^" horiz-adv-x="469" 
d="M116 291h-90l173 391h71l173 -391h-89l-120 292z" />
    <glyph glyph-name="underscore" unicode="_" 
d="M-6 -75h512v-50h-512v50z" />
    <glyph glyph-name="grave" unicode="`" horiz-adv-x="333" 
d="M160 654l67 -147h-55l-112 147h100z" />
    <glyph glyph-name="a" unicode="a" horiz-adv-x="427" 
d="M411 80v-54q-53 -35 -86 -35q-57 0 -68 46q-58 -46 -121 -46q-48 0 -79 32.5t-31 77.5q0 26 10 47t21.5 33.5t37.5 26t39.5 19t44.5 16.5l79 28v24q0 79 -81 79q-80 0 -142 -74v97q52 61 149 61q72 0 117.5 -37.5t45.5 -110.5v-231q0 -23 17 -23q15 0 47 24zM258 91v131
q-71 -24 -106.5 -46.5t-35.5 -58.5q0 -28 18 -45.5t46 -17.5q39 0 78 37z" />
    <glyph glyph-name="b" unicode="b" 
d="M148 682v-265q57 41 124 41q84 0 139 -63.5t55 -160.5q0 -114 -63.5 -178.5t-176.5 -64.5q-96 0 -167 34v657h89zM148 332v-243q46 -14 90 -14q60 0 98.5 41t38.5 105q0 71 -34.5 114t-90.5 43q-51 0 -102 -46z" />
    <glyph glyph-name="c" unicode="c" horiz-adv-x="438" 
d="M393 427v-95q-66 44 -124 44q-61 0 -99 -42t-38 -110q0 -69 41 -109t111 -40q52 0 119 30v-88q-56 -26 -134 -26q-100 0 -164 63t-64 162q0 111 60 176.5t162 65.5q60 0 130 -31z" />
    <glyph glyph-name="d" unicode="d" horiz-adv-x="510" 
d="M451 682v-682h-189q-100 0 -159 63.5t-59 171.5q0 98 63 160.5t161 62.5q44 0 94 -18v242h89zM362 75v286q-42 17 -83 17q-65 0 -104.5 -43t-39.5 -113q0 -147 137 -147h90z" />
    <glyph glyph-name="e" unicode="e" horiz-adv-x="479" 
d="M438 130v-86q-80 -53 -179 -53q-100 0 -159 70.5t-59 168.5q0 102 58.5 165t151.5 63q92 0 143.5 -62.5t51.5 -184.5h-316q21 -135 151 -135q74 0 157 54zM132 270h226q-2 51 -30 81t-75 30q-102 0 -121 -111z" />
    <glyph glyph-name="f" unicode="f" horiz-adv-x="250" 
d="M296 682v-87q-20 8 -40 8q-52 0 -73.5 -28t-21.5 -83v-43h81v-80h-81v-369h-89v369h-63v80h63v33q0 62 14 99.5t43 66.5q63 63 167 34z" />
    <glyph glyph-name="g" unicode="g" horiz-adv-x="427" 
d="M421 449v-69h-92q47 -47 47 -98q0 -26 -12.5 -55t-29.5 -46q-25 -27 -72 -37.5t-78.5 -18t-31.5 -29.5q0 -18 32.5 -31t104.5 -27q130 -26 130 -125q0 -67 -56 -105t-156 -38q-91 0 -149 38.5t-58 97.5q0 50 27.5 80t85.5 44q-45 28 -45 57q0 22 19.5 39t51.5 25v2
q-49 21 -75 57q-24 34 -24 84q0 72 52.5 113.5t143.5 41.5h185zM296 293q0 32 -26 55.5t-61 23.5q-37 0 -63 -24t-26 -57q0 -37 25 -59.5t65 -22.5q38 0 62 23.5t24 60.5zM333 -94q0 26 -26.5 43.5t-57.5 23t-63 5.5q-45 0 -73.5 -19t-28.5 -49q0 -69 125 -69q59 0 91.5 17
t32.5 48z" />
    <glyph glyph-name="h" unicode="h" 
d="M150 682v-292h2q54 68 134 68q69 0 111 -47t42 -136v-275h-89v278q0 50 -24 79.5t-64 29.5q-54 0 -112 -65v-322h-89v682h89z" />
    <glyph glyph-name="i" unicode="i" horiz-adv-x="219" 
d="M154 449v-449h-89v449h89zM163 585q0 -22 -15.5 -37.5t-37.5 -15.5t-37.5 15.5t-15.5 37.5t15.5 37.5t37.5 15.5t37.5 -15.5t15.5 -37.5z" />
    <glyph glyph-name="j" unicode="j" horiz-adv-x="219" 
d="M150 449v-508q0 -69 -21.5 -107.5t-67.5 -63.5l-67 66q67 27 67 98v515h89zM159 585q0 -22 -15.5 -37.5t-37.5 -15.5t-37.5 15.5t-15.5 37.5t15.5 37.5t37.5 15.5t37.5 -15.5t15.5 -37.5z" />
    <glyph glyph-name="k" unicode="k" horiz-adv-x="479" 
d="M460 449l-192 -220l232 -229h-120l-225 229l199 220h106zM151 682v-682h-89v682h89z" />
    <glyph glyph-name="l" unicode="l" horiz-adv-x="219" 
d="M154 682v-682h-89v682h89z" />
    <glyph glyph-name="m" unicode="m" horiz-adv-x="771" 
d="M59 449h89v-59q68 68 131 68q88 0 134 -81q72 81 150 81q68 0 108.5 -48t40.5 -128v-282h-89v278q0 49 -26.5 77t-66.5 28q-43 1 -100 -57v-326h-89v279q0 52 -23 78t-58 26q-34 0 -59.5 -12.5t-52.5 -44.5v-326h-89v449z" />
    <glyph glyph-name="n" unicode="n" 
d="M150 449v-59h2q54 68 134 68q67 0 110 -46.5t43 -134.5v-277h-89v278q0 50 -24 79.5t-64 29.5q-54 0 -112 -65v-322h-89v449h89z" />
    <glyph glyph-name="o" unicode="o" horiz-adv-x="552" 
d="M273 458q106 0 174.5 -64.5t68.5 -164.5q0 -106 -67.5 -172t-175.5 -66q-103 0 -170 67t-67 171q0 97 68.5 163t168.5 66zM272 378q-63 0 -104 -42t-41 -107q0 -71 40 -114.5t105 -43.5q71 0 112 42t41 115q0 65 -43 107.5t-110 42.5z" />
    <glyph glyph-name="p" unicode="p" 
d="M146 11v-241h-89v679h154q123 0 188 -58.5t65 -169.5q0 -101 -64 -165.5t-164 -64.5q-41 0 -90 20zM146 369v-278q42 -20 84 -20q62 0 102.5 43t40.5 108q0 71 -37 109t-109 38h-81z" />
    <glyph glyph-name="q" unicode="q" 
d="M354 -230v237q-53 -16 -90 -16q-100 0 -164 64.5t-64 165.5q0 25 5 51.5t21 59.5t41.5 58t71 42t104.5 17h164v-679h-89zM354 369h-81q-59 0 -102.5 -38t-43.5 -109q0 -66 40.5 -111t102.5 -45q42 0 84 20v283z" />
    <glyph glyph-name="r" unicode="r" horiz-adv-x="396" 
d="M69 449h89v-103h2q64 112 130 112q52 0 107 -52l-47 -77q-46 44 -83 44q-46 0 -77.5 -40t-31.5 -98v-235h-89v449z" />
    <glyph glyph-name="s" unicode="s" horiz-adv-x="385" 
d="M324 421v-88q-71 47 -130 47q-27 0 -43 -11.5t-16 -29.5q0 -15 24.5 -35t84.5 -55q56 -37 78.5 -64.5t22.5 -61.5q0 -59 -42 -95.5t-106 -36.5q-77 0 -156 41v96q86 -59 147 -59q29 2 47.5 15t18.5 36q0 20 -33 43t-72 42.5t-72 54.5t-33 76q0 57 40 89.5t108 32.5
q62 0 132 -37z" />
    <glyph glyph-name="t" unicode="t" horiz-adv-x="333" 
d="M167 542v-93h142v-80h-142v-230q0 -36 20 -52t44 -16q47 0 101 33v-83q-55 -30 -108 -30q-70 0 -108 39t-38 102v237h-78v10z" />
    <glyph glyph-name="u" unicode="u" 
d="M437 0h-89v57q-28 -30 -64 -48t-69 -18q-70 0 -112.5 47.5t-42.5 131.5v279h89v-285q0 -99 92 -99q62 0 107 63v321h89v-449z" />
    <glyph glyph-name="v" unicode="v" horiz-adv-x="438" 
d="M206 -9l-203 458h97l121 -276l118 276h95l-198 -458h-30z" />
    <glyph glyph-name="w" unicode="w" horiz-adv-x="719" 
d="M393 449l114 -272l117 272h95l-198 -458h-28l-133 314l-132 -314h-28l-200 458h95l118 -272l114 272h66z" />
    <glyph glyph-name="x" unicode="x" 
d="M487 449l-185 -221l198 -228h-114l-141 161l-133 -161h-112l189 228l-189 221h112l133 -154l128 154h114z" />
    <glyph glyph-name="y" unicode="y" horiz-adv-x="438" 
d="M438 449l-318 -679h-99l153 326l-174 353h101l121 -253l116 253h100z" />
    <glyph glyph-name="z" unicode="z" horiz-adv-x="417" 
d="M404 449l-239 -369h240v-80h-394l238 369h-228v80h383z" />
    <glyph glyph-name="braceleft" unicode="{" horiz-adv-x="333" 
d="M28 219v80q58 0 79.5 40t21.5 123v88q0 91 32 134.5t110 43.5h39v-76h-15q-52 0 -68 -19t-16 -82v-72q0 -100 -22.5 -148t-79.5 -72q57 -24 79.5 -72t22.5 -148v-72q0 -63 16 -82t68 -19h15v-76h-39q-78 0 -110 43.5t-32 134.5v88q0 83 -21.5 123t-79.5 40z" />
    <glyph glyph-name="bar" unicode="|" horiz-adv-x="260" 
d="M92 -250v1000h76v-1000h-76z" />
    <glyph glyph-name="braceright" unicode="}" horiz-adv-x="333" 
d="M305 299v-80q-58 0 -79.5 -40t-21.5 -123v-88q0 -91 -32 -134.5t-110 -43.5h-39v76h15q52 0 68 19t16 82v72q0 100 22.5 148t79.5 72q-57 24 -79.5 72t-22.5 148v72q0 63 -16 82t-68 19h-15v76h39q78 0 110 -43.5t32 -134.5v-88q0 -83 21.5 -123t79.5 -40z" />
    <glyph glyph-name="asciitilde" unicode="~" horiz-adv-x="584" 
d="M25 198v83q76 64 149 64q42 0 126 -38t120 -38q58 0 140 67v-83q-75 -64 -146 -64q-41 0 -125 38q-86 38 -122 38q-55 0 -142 -67z" />
    <glyph glyph-name="uni00A0" unicode="&#xa0;" horiz-adv-x="278" 
 />
    <glyph glyph-name="exclamdown" unicode="&#xa1;" horiz-adv-x="271" 
d="M136 -192q-56 0 -56 148q0 66 6 107l25 172q9 63 25 63t25 -63l25 -172q6 -40 6 -107q0 -148 -56 -148zM135 388q-25 0 -42.5 17.5t-17.5 42.5t17.5 42.5t42.5 17.5t42.5 -17.5t17.5 -42.5t-17.5 -42.5t-42.5 -17.5z" />
    <glyph glyph-name="cent" unicode="&#xa2;" horiz-adv-x="438" 
d="M408 620l-63 -175q44 -18 45 -19v-94q-32 26 -73 36l-102 -281q48 -17 96 -11t89 29v-86q-115 -42 -215 -19l-69 -190h-47l77 209q-49 28 -78.5 81t-29.5 116q0 118 71 186t194 53l59 165h46zM178 109l96 266q-66 5 -105.5 -41.5t-39.5 -112.5q0 -69 49 -112z" />
    <glyph glyph-name="sterling" unicode="&#xa3;" horiz-adv-x="531" 
d="M333 374v-88h-102l-50 -189q15 2 40 2q55 0 99 -7q52 -8 75 -8q67 0 101 20v-95q-24 -8 -50 -13q-28 -5 -55 -5q-21 0 -81 8q-51 7 -89 7q-85 0 -162 -15l79 295h-72v88h95q16 57 34 102.5t44 91t55.5 73.5t69.5 41.5t85 4.5l52 -98h-11q-24 9 -53 9q-62 0 -104 -52.5
t-76 -171.5h76z" />
    <glyph glyph-name="currency" unicode="&#xa4;" horiz-adv-x="552" 
d="M448 226l67 -67l-57 -57l-67 67q-51 -35 -115 -35q-63 0 -115 35l-67 -67l-57 57l67 67q-35 50 -35 115q0 63 35 115l-67 67l57 57l67 -67q49 35 115 35q62 0 115 -35l67 67l57 -57l-67 -67q35 -48 35 -115q0 -66 -35 -115zM276 468q-52 0 -89.5 -37t-37.5 -90t37.5 -90
t89.5 -37t89.5 37t37.5 90t-37.5 90t-89.5 37z" />
    <glyph glyph-name="yen" unicode="&#xa5;" horiz-adv-x="552" 
d="M233 0v159h-203v67h203v70h-203v73h167l-198 347h98l180 -322l173 322h103l-196 -347h165v-73h-200v-70h200v-67h-200v-159h-89z" />
    <glyph glyph-name="brokenbar" unicode="&#xa6;" horiz-adv-x="260" 
d="M92 -175v350h76v-350h-76zM92 325v350h76v-350h-76z" />
    <glyph glyph-name="section" unicode="&#xa7;" horiz-adv-x="406" 
d="M150 559q0 -36 23 -70.5t56 -65t66 -63.5t56 -79t23 -98q0 -77 -74 -151q35 -52 35 -113q0 -63 -46 -106t-113 -43q-48 0 -80.5 26t-32.5 65q0 25 16.5 42.5t39.5 17.5q20 0 33.5 -14t13.5 -33q0 -1 -3.5 -14.5t1 -19.5t21.5 -6q29 0 50.5 21.5t21.5 49.5
q0 29 -16.5 59.5t-41.5 56t-54.5 57t-54.5 62t-41.5 71.5t-16.5 85q0 84 66 144q-28 48 -28 98q0 22 8 46t24 49t47.5 41.5t73.5 16.5q51 0 84 -24t33 -61q0 -24 -14.5 -39.5t-37.5 -15.5q-18 0 -29 12.5t-11 26.5t-1 20.5t-7.5 11.5t-20.5 5q-32 0 -50.5 -18t-18.5 -50z
M140 384q-32 -32 -32 -72q0 -30 15.5 -61t31.5 -50t52 -56t52 -55q37 37 37 85q0 39 -21 71t-70.5 77t-64.5 61z" />
    <glyph glyph-name="dieresis" unicode="&#xa8;" horiz-adv-x="333" 
d="M74 628q20 0 33 -13t13 -33t-13.5 -33.5t-32.5 -13.5q-20 0 -33.5 13.5t-13.5 33.5q0 19 13.5 32.5t33.5 13.5zM260 628q20 0 33 -13t13 -33t-13.5 -33.5t-32.5 -13.5q-20 0 -33.5 13.5t-13.5 33.5q0 19 13.5 32.5t33.5 13.5z" />
    <glyph glyph-name="copyright" unicode="&#xa9;" horiz-adv-x="740" 
d="M488 300l60 -18q-15 -64 -63 -98.5t-119 -34.5q-87 0 -138 58t-51 158q0 91 54 146t143 55q64 0 107.5 -30t59.5 -85l-58 -14q-30 75 -114 75q-57 0 -91 -43t-34 -114q0 -70 33.5 -109.5t92.5 -39.5q43 0 75.5 25.5t42.5 68.5zM738 360q0 -153 -108 -261t-261 -108
t-260.5 108t-107.5 261t107.5 260.5t260.5 107.5t261 -107.5t108 -260.5zM677 360q0 127 -90 217t-218 90q-127 0 -217 -89.5t-90 -217.5t90 -218t217 -90t217.5 90t90.5 218z" />
    <glyph glyph-name="ordfeminine" unicode="&#xaa;" horiz-adv-x="281" 
d="M273 474v-42q-37 -23 -63 -23q-38 0 -47 23q-35 -23 -73 -23q-32 0 -53.5 20t-21.5 49q0 38 36.5 59.5t111.5 40.5q0 33 -8.5 45t-36.5 12q-46 0 -98 -52v69q36 39 103 39q46 0 77 -22t31 -67v-126q0 -22 5 -22q8 0 37 20zM163 471v72q-45 -15 -62 -26t-17 -30
q0 -34 35 -34q21 0 44 18z" />
    <glyph glyph-name="guillemotleft" unicode="&#xab;" horiz-adv-x="490" 
d="M320 225l148 -225h-88l-147 225l147 225h88zM117 225l148 -225h-88l-147 225l147 225h88z" />
    <glyph glyph-name="logicalnot" unicode="&#xac;" horiz-adv-x="584" 
d="M528 126h-82v213h-391v82h473v-295z" />
    <glyph glyph-name="uni00AD" unicode="&#xad;" horiz-adv-x="323" 
d="M283 267v-93h-243v93h243z" />
    <glyph glyph-name="registered" unicode="&#xae;" horiz-adv-x="740" 
d="M208 156v396h175q67 0 99 -32.5t32 -71.5q0 -48 -31.5 -79.5t-81.5 -34.5v-2q24 -8 44 -31t48 -68l48 -77h-78l-35 62q-37 67 -59 86.5t-59 19.5h-38v-168h-64zM272 379h92q82 0 82 60q0 27 -19.5 43t-51.5 16h-103v-119zM677 360q0 127 -90 217t-218 90
q-127 0 -217 -89.5t-90 -217.5t90 -218t217 -90t217.5 90t90.5 218zM738 360q0 -153 -108 -261t-261 -108t-260.5 108t-107.5 261t107.5 260.5t260.5 107.5t261 -107.5t108 -260.5z" />
    <glyph glyph-name="macron" unicode="&#xaf;" horiz-adv-x="333" 
d="M332 615v-73h-331v73h331z" />
    <glyph glyph-name="degree" unicode="&#xb0;" horiz-adv-x="396" 
d="M197 675q-35 0 -58.5 -23.5t-23.5 -58.5t24 -59t58 -24q35 0 59 24t24 59q0 34 -24 58t-59 24zM197 728q56 0 95.5 -39.5t39.5 -95.5t-39.5 -95.5t-95.5 -39.5t-95.5 39.5t-39.5 95.5t39.5 95.5t95.5 39.5z" />
    <glyph glyph-name="plusminus" unicode="&#xb1;" horiz-adv-x="584" 
d="M56 82h472v-82h-472v82zM251 589h82v-195h195v-82h-195v-195h-82v195h-195v82h195v195z" />
    <glyph glyph-name="two.superior" unicode="&#xb2;" horiz-adv-x="323" 
d="M295 386v-54h-267v7q90 92 129 144.5t39 91.5q0 27 -17.5 43.5t-46.5 16.5q-56 0 -95 -58v78q49 36 100 36q57 0 93 -31.5t36 -80.5q0 -73 -122 -193h151z" />
    <glyph glyph-name="three.superior" unicode="&#xb3;" horiz-adv-x="323" 
d="M56 619v55q38 17 83 17q56 0 90 -25.5t34 -68.5q0 -54 -47 -78q54 -20 54 -83q0 -48 -37 -78.5t-96 -30.5q-44 0 -91 22v63q50 -29 94 -29q27 0 42.5 14t15.5 37q0 58 -84 55v52q43 -4 62 10.5t19 37.5t-17 36.5t-47 13.5t-75 -20z" />
    <glyph glyph-name="acute" unicode="&#xb4;" horiz-adv-x="333" 
d="M178 654h100l-112 -147h-55z" />
    <glyph glyph-name="mu" unicode="&#xb5;" horiz-adv-x="552" 
d="M469 449v-449h-82v53h-2q-35 -62 -105 -62q-65 0 -102 54h-2v-217h-89v621h89v-248q0 -70 27 -106.5t72 -36.5q50 0 77.5 37t27.5 104v250h89z" />
    <glyph glyph-name="paragraph" unicode="&#xb6;" horiz-adv-x="542" 
d="M198 -199v510q-92 5 -144.5 59.5t-52.5 143.5q0 97 60 149.5t170 52.5h309v-80h-70v-835h-83v835h-109v-835h-80z" />
    <glyph glyph-name="periodcentered" unicode="&#xb7;" horiz-adv-x="260" 
d="M130 405q25 0 42.5 -17.5t17.5 -42.5t-17.5 -42.5t-42.5 -17.5t-42.5 17.5t-17.5 42.5t17.5 42.5t42.5 17.5z" />
    <glyph glyph-name="cedilla" unicode="&#xb8;" horiz-adv-x="333" 
d="M209 8l-7 -24q54 -15 54 -63q0 -54 -43 -76.5t-112 -12.5v55q36 -5 60 2t24 24q0 13 -15.5 20.5t-42.5 4.5l25 70h57z" />
    <glyph glyph-name="one.superior" unicode="&#xb9;" horiz-adv-x="323" 
d="M196 687v-355h-69v355h69z" />
    <glyph glyph-name="ordmasculine" unicode="&#xba;" horiz-adv-x="365" 
d="M342 550q0 -61 -45.5 -101t-114.5 -40q-68 0 -113.5 40t-45.5 101t45.5 101t113.5 40q69 0 114.5 -40t45.5 -101zM273 550q0 39 -25 63t-65 24q-41 0 -66 -24t-25 -63t25 -63t66 -24q40 0 65 24t25 63z" />
    <glyph glyph-name="guillemotright" unicode="&#xbb;" horiz-adv-x="490" 
d="M373 225l-148 225h88l147 -225l-147 -225h-88zM170 225l-148 225h88l147 -225l-147 -225h-88z" />
    <glyph glyph-name="onequarter" unicode="&#xbc;" horiz-adv-x="844" 
d="M635 360v-196h45v-49h-45v-115h-68v115h-170v25l205 220h33zM567 248l-78 -84h78v84zM195 687v-355h-69v355h69zM605 691l-455 -718h-67l455 718h67z" />
    <glyph glyph-name="onehalf" unicode="&#xbd;" horiz-adv-x="844" 
d="M732 54v-54h-267v7q90 92 129 144.5t39 91.5q0 27 -17.5 43.5t-46.5 16.5q-56 0 -95 -58v78q49 36 100 36q57 0 93 -31.5t36 -80.5q0 -73 -122 -193h151zM605 691l-455 -718h-67l455 718h67zM195 687v-355h-69v355h69z" />
    <glyph glyph-name="threequarters" unicode="&#xbe;" horiz-adv-x="844" 
d="M653 691l-455 -718h-67l455 718h67zM75 619v55q38 17 83 17q56 0 90 -25.5t34 -68.5q0 -54 -47 -78q54 -20 54 -83q0 -48 -37 -78.5t-96 -30.5q-44 0 -91 22v63q50 -29 94 -29q27 0 42.5 14t15.5 37q0 58 -84 55v52q43 -4 62 10.5t19 37.5t-17 36.5t-47 13.5t-75 -20z
M683 360v-196h45v-49h-45v-115h-68v115h-170v25l205 220h33zM615 248l-78 -84h78v84z" />
    <glyph glyph-name="questiondown" unicode="&#xbf;" horiz-adv-x="333" 
d="M251 -97l-47 -96q-81 -1 -121 44t-40 101q0 50 25.5 106.5t55.5 97t52.5 87t17.5 80.5q59 -29 59 -92q0 -45 -28 -92.5t-56 -92t-28 -82.5q0 -30 18 -48.5t48 -18.5q11 0 44 6zM179 387q-25 0 -42.5 17.5t-17.5 42.5t17.5 42.5t42.5 17.5t42.5 -17.5t17.5 -42.5
t-17.5 -42.5t-42.5 -17.5z" />
    <glyph glyph-name="Agrave" unicode="&#xc0;" horiz-adv-x="667" 
d="M362 686l305 -686h-100l-91 201h-290l-86 -201h-100l293 686h69zM326 536l-102 -247h212zM327 874l67 -147h-55l-112 147h100z" />
    <glyph glyph-name="Aacute" unicode="&#xc1;" horiz-adv-x="667" 
d="M362 686l305 -686h-100l-91 201h-290l-86 -201h-100l293 686h69zM326 536l-102 -247h212zM345 874h100l-112 -147h-55z" />
    <glyph glyph-name="Acircumflex" unicode="&#xc2;" horiz-adv-x="667" 
d="M362 686l305 -686h-100l-91 201h-290l-86 -201h-100l293 686h69zM326 536l-102 -247h212zM379 877l94 -151h-55l-87 87l-83 -87h-53l91 151h93z" />
    <glyph glyph-name="Atilde" unicode="&#xc3;" horiz-adv-x="667" 
d="M362 686l305 -686h-100l-91 201h-290l-86 -201h-100l293 686h69zM326 536l-102 -247h212zM442 863h38q0 -53 -22 -85.5t-57 -32.5q-29 0 -73 17.5t-66 17.5q-29 0 -34 -35h-41q8 115 78 115q28 0 78.5 -17.5t62.5 -17.5q30 0 36 38z" />
    <glyph glyph-name="Adieresis" unicode="&#xc4;" horiz-adv-x="667" 
d="M362 686l305 -686h-100l-91 201h-290l-86 -201h-100l293 686h69zM326 536l-102 -247h212zM241 848q19 0 32.5 -13t13.5 -33t-13.5 -33.5t-32.5 -13.5t-33 13.5t-14 33.5q0 19 13.5 32.5t33.5 13.5zM427 848q19 0 32.5 -13t13.5 -33t-13.5 -33.5t-32.5 -13.5t-33 13.5
t-14 33.5q0 19 13.5 32.5t33.5 13.5z" />
    <glyph glyph-name="Aring" unicode="&#xc5;" horiz-adv-x="667" 
d="M362 686l305 -686h-100l-91 201h-290l-86 -201h-100l293 686h69zM326 536l-102 -247h212zM334 911q38 0 65.5 -27.5t27.5 -65.5t-27.5 -65.5t-65.5 -27.5t-65.5 27.5t-27.5 65.5t27.5 65.5t65.5 27.5zM334 873q-22 0 -38.5 -16.5t-16.5 -38.5t16.5 -38.5t38.5 -16.5
t38.5 16.5t16.5 38.5t-16.5 38.5t-38.5 16.5z" />
    <glyph glyph-name="AE" unicode="&#xc6;" horiz-adv-x="896" 
d="M851 682v-88h-280v-205h271v-88h-271v-213h291v-88h-389v301h-191l-179 -301h-101l404 682h445zM471 622l-139 -233h141v233h-2z" />
    <glyph glyph-name="Ccedilla" unicode="&#xc7;" horiz-adv-x="708" 
d="M663 158v-107q-58 -30 -116 -45t-151 -15l-4 -14q54 -15 54 -63q0 -54 -43 -76.5t-112 -12.5v55q36 -5 60 2t24 24q0 13 -15.5 20.5t-42.5 4.5l24 67q-96 16 -165 73t-98.5 124.5t-29.5 135.5q0 156 105.5 258t268.5 102q100 0 234 -56v-105q-122 71 -235 71
q-117 0 -194.5 -74.5t-77.5 -186.5q0 -115 76.5 -187t199.5 -72q119 0 238 77z" />
    <glyph glyph-name="Egrave" unicode="&#xc8;" 
d="M462 682v-88h-289v-206h279v-88h-279v-212h298v-88h-396v682h387zM244 874l67 -147h-55l-112 147h100z" />
    <glyph glyph-name="Eacute" unicode="&#xc9;" 
d="M462 682v-88h-289v-206h279v-88h-279v-212h298v-88h-396v682h387zM262 874h100l-112 -147h-55z" />
    <glyph glyph-name="Ecircumflex" unicode="&#xca;" 
d="M462 682v-88h-289v-206h279v-88h-279v-212h298v-88h-396v682h387zM296 877l94 -151h-55l-87 87l-83 -87h-53l91 151h93z" />
    <glyph glyph-name="Edieresis" unicode="&#xcb;" 
d="M462 682v-88h-289v-206h279v-88h-279v-212h298v-88h-396v682h387zM158 848q20 0 33 -13t13 -33t-13.5 -33.5t-32.5 -13.5q-20 0 -33.5 13.5t-13.5 33.5q0 19 13.5 32.5t33.5 13.5zM344 848q20 0 33 -13t13 -33t-13.5 -33.5t-32.5 -13.5q-20 0 -33.5 13.5t-13.5 33.5
q0 19 13.5 32.5t33.5 13.5z" />
    <glyph glyph-name="Igrave" unicode="&#xcc;" horiz-adv-x="250" 
d="M174 682v-682h-98v682h98zM119 874l67 -147h-55l-112 147h100z" />
    <glyph glyph-name="Iacute" unicode="&#xcd;" horiz-adv-x="250" 
d="M174 682v-682h-98v682h98zM137 874h100l-112 -147h-55z" />
    <glyph glyph-name="Icircumflex" unicode="&#xce;" horiz-adv-x="250" 
d="M174 682v-682h-98v682h98zM171 877l94 -151h-55l-87 87l-83 -87h-53l91 151h93z" />
    <glyph glyph-name="Idieresis" unicode="&#xcf;" horiz-adv-x="250" 
d="M174 682v-682h-98v682h98zM33 848q19 0 32.5 -13t13.5 -33t-13.5 -33.5t-32.5 -13.5t-33 13.5t-14 33.5q0 19 13.5 32.5t33.5 13.5zM219 848q19 0 32.5 -13t13.5 -33t-13.5 -33.5t-32.5 -13.5t-33 13.5t-14 33.5q0 19 13.5 32.5t33.5 13.5z" />
    <glyph glyph-name="Eth" unicode="&#xd0;" horiz-adv-x="750" 
d="M76 0v297h-80v88h80v297h265q83 0 152.5 -29t115 -77t70.5 -109t25 -126q0 -139 -100 -240t-262 -101h-266zM174 88h158q118 0 194.5 67t76.5 186q0 110 -71 181.5t-207 71.5h-151v-209h193v-88h-193v-209z" />
    <glyph glyph-name="Ntilde" unicode="&#xd1;" horiz-adv-x="781" 
d="M706 682v-682h-84l-456 525v-525h-92v682h78l462 -528v528h92zM499 863h38q0 -53 -22 -85.5t-57 -32.5q-28 0 -72 17.5t-67 17.5q-29 0 -34 -35h-41q8 115 78 115q28 0 78.5 -17.5t62.5 -17.5q30 0 36 38z" />
    <glyph glyph-name="Ograve" unicode="&#xd2;" horiz-adv-x="823" 
d="M45 341q0 146 102 248t264 102q164 0 265.5 -101.5t101.5 -248.5q0 -144 -101 -247t-268 -103q-162 0 -263 103t-101 247zM146 341q0 -112 75.5 -186t189.5 -74q115 0 190.5 74t75.5 186t-75.5 186t-190.5 74q-114 0 -189.5 -74t-75.5 -186zM405 874l67 -147h-55
l-112 147h100z" />
    <glyph glyph-name="Oacute" unicode="&#xd3;" horiz-adv-x="823" 
d="M45 341q0 146 102 248t264 102q164 0 265.5 -101.5t101.5 -248.5q0 -144 -101 -247t-268 -103q-162 0 -263 103t-101 247zM146 341q0 -112 75.5 -186t189.5 -74q115 0 190.5 74t75.5 186t-75.5 186t-190.5 74q-114 0 -189.5 -74t-75.5 -186zM423 874h100l-112 -147h-55z
" />
    <glyph glyph-name="Ocircumflex" unicode="&#xd4;" horiz-adv-x="823" 
d="M45 341q0 146 102 248t264 102q164 0 265.5 -101.5t101.5 -248.5q0 -144 -101 -247t-268 -103q-162 0 -263 103t-101 247zM146 341q0 -112 75.5 -186t189.5 -74q115 0 190.5 74t75.5 186t-75.5 186t-190.5 74q-114 0 -189.5 -74t-75.5 -186zM457 877l94 -151h-55l-87 87
l-83 -87h-53l91 151h93z" />
    <glyph glyph-name="Otilde" unicode="&#xd5;" horiz-adv-x="823" 
d="M45 341q0 146 102 248t264 102q164 0 265.5 -101.5t101.5 -248.5q0 -144 -101 -247t-268 -103q-162 0 -263 103t-101 247zM146 341q0 -112 75.5 -186t189.5 -74q115 0 190.5 74t75.5 186t-75.5 186t-190.5 74q-114 0 -189.5 -74t-75.5 -186zM520 863h38q0 -53 -22 -85.5
t-57 -32.5q-29 0 -73 17.5t-66 17.5q-29 0 -34 -35h-41q8 115 78 115q28 0 78.5 -17.5t62.5 -17.5q30 0 36 38z" />
    <glyph glyph-name="Odieresis" unicode="&#xd6;" horiz-adv-x="823" 
d="M45 341q0 146 102 248t264 102q164 0 265.5 -101.5t101.5 -248.5q0 -144 -101 -247t-268 -103q-162 0 -263 103t-101 247zM146 341q0 -112 75.5 -186t189.5 -74q115 0 190.5 74t75.5 186t-75.5 186t-190.5 74q-114 0 -189.5 -74t-75.5 -186zM319 848q19 0 32.5 -13
t13.5 -33t-13.5 -33.5t-32.5 -13.5t-33 13.5t-14 33.5q0 19 13.5 32.5t33.5 13.5zM505 848q19 0 32.5 -13t13.5 -33t-13.5 -33.5t-32.5 -13.5t-33 13.5t-14 33.5q0 19 13.5 32.5t33.5 13.5z" />
    <glyph glyph-name="multiply" unicode="&#xd7;" horiz-adv-x="584" 
d="M79 200l154 154l-154 154l59 59l154 -154l153 153l59 -59l-153 -153l153 -153l-59 -59l-153 153l-154 -154z" />
    <glyph glyph-name="Oslash" unicode="&#xd8;" horiz-adv-x="823" 
d="M216 160l342 401q-70 40 -147 40q-114 0 -189.5 -74t-75.5 -186q0 -101 70 -181zM198 51l-47 -55l-47 33l49 57q-108 108 -108 255q0 146 102 248t264 102q121 0 209 -57l51 59l46 -40l-48 -56q52 -46 80.5 -114.5t28.5 -141.5q0 -144 -101 -247t-268 -103
q-121 0 -211 60zM605 523l-344 -399q71 -43 150 -43q115 0 190.5 74t75.5 186q0 108 -72 182z" />
    <glyph glyph-name="Ugrave" unicode="&#xd9;" horiz-adv-x="708" 
d="M648 682v-414q0 -129 -77 -203t-226 -74q-118 0 -201 68t-83 199v424h98v-403q0 -57 9 -87t32 -53q58 -58 147 -58q105 0 160 55q43 43 43 149v397h98zM348 874l67 -147h-55l-112 147h100z" />
    <glyph glyph-name="Uacute" unicode="&#xda;" horiz-adv-x="708" 
d="M648 682v-414q0 -129 -77 -203t-226 -74q-118 0 -201 68t-83 199v424h98v-403q0 -57 9 -87t32 -53q58 -58 147 -58q105 0 160 55q43 43 43 149v397h98zM366 874h100l-112 -147h-55z" />
    <glyph glyph-name="Ucircumflex" unicode="&#xdb;" horiz-adv-x="708" 
d="M648 682v-414q0 -129 -77 -203t-226 -74q-118 0 -201 68t-83 199v424h98v-403q0 -57 9 -87t32 -53q58 -58 147 -58q105 0 160 55q43 43 43 149v397h98zM400 877l94 -151h-55l-87 87l-83 -87h-53l91 151h93z" />
    <glyph glyph-name="Udieresis" unicode="&#xdc;" horiz-adv-x="708" 
d="M648 682v-414q0 -129 -77 -203t-226 -74q-118 0 -201 68t-83 199v424h98v-403q0 -57 9 -87t32 -53q58 -58 147 -58q105 0 160 55q43 43 43 149v397h98zM262 848q20 0 33 -13t13 -33t-13.5 -33.5t-32.5 -13.5q-20 0 -33.5 13.5t-13.5 33.5q0 19 13.5 32.5t33.5 13.5z
M448 848q20 0 33 -13t13 -33t-13.5 -33.5t-32.5 -13.5q-20 0 -33.5 13.5t-13.5 33.5q0 19 13.5 32.5t33.5 13.5z" />
    <glyph glyph-name="Yacute" unicode="&#xdd;" horiz-adv-x="604" 
d="M301 447l185 235h118l-253 -322v-360h-98v361l-253 321h118zM314 874h100l-112 -147h-55z" />
    <glyph glyph-name="Thorn" unicode="&#xde;" horiz-adv-x="510" 
d="M70 682h98v-148h115q107 0 162 -55t55 -141q0 -85 -58.5 -138t-171.5 -53h-102v-147h-98v682zM168 446v-211h111q55 0 87.5 28.5t32.5 78.5q0 44 -27.5 74t-88.5 30h-115z" />
    <glyph glyph-name="germandbls" unicode="&#xdf;" 
d="M59 0v517q0 82 52 128t138 46q89 0 139.5 -44t50.5 -121q0 -51 -26.5 -90.5t-72.5 -58.5v-2q60 -15 93.5 -62t33.5 -117q0 -92 -49.5 -148.5t-130.5 -56.5q-24 0 -64 9v87q24 -11 48 -11q47 0 76 33.5t29 88.5q0 138 -145 134v80q57 -1 87 26t30 78q0 45 -28 75.5
t-70 30.5q-102 0 -102 -116v-506h-89z" />
    <glyph glyph-name="agrave" unicode="&#xe0;" horiz-adv-x="427" 
d="M411 80v-54q-53 -35 -86 -35q-57 0 -68 46q-58 -46 -121 -46q-48 0 -79 32.5t-31 77.5q0 26 10 47t21.5 33.5t37.5 26t39.5 19t44.5 16.5l79 28v24q0 79 -81 79q-80 0 -142 -74v97q52 61 149 61q72 0 117.5 -37.5t45.5 -110.5v-231q0 -23 17 -23q15 0 47 24zM258 91v131
q-71 -24 -106.5 -46.5t-35.5 -58.5q0 -28 18 -45.5t46 -17.5q39 0 78 37zM187 654l67 -147h-55l-112 147h100z" />
    <glyph glyph-name="aacute" unicode="&#xe1;" horiz-adv-x="427" 
d="M411 80v-54q-53 -35 -86 -35q-57 0 -68 46q-58 -46 -121 -46q-48 0 -79 32.5t-31 77.5q0 26 10 47t21.5 33.5t37.5 26t39.5 19t44.5 16.5l79 28v24q0 79 -81 79q-80 0 -142 -74v97q52 61 149 61q72 0 117.5 -37.5t45.5 -110.5v-231q0 -23 17 -23q15 0 47 24zM258 91v131
q-71 -24 -106.5 -46.5t-35.5 -58.5q0 -28 18 -45.5t46 -17.5q39 0 78 37zM225 654h100l-112 -147h-55z" />
    <glyph glyph-name="acircumflex" unicode="&#xe2;" horiz-adv-x="427" 
d="M411 80v-54q-53 -35 -86 -35q-57 0 -68 46q-58 -46 -121 -46q-48 0 -79 32.5t-31 77.5q0 26 10 47t21.5 33.5t37.5 26t39.5 19t44.5 16.5l79 28v24q0 79 -81 79q-80 0 -142 -74v97q52 61 149 61q72 0 117.5 -37.5t45.5 -110.5v-231q0 -23 17 -23q15 0 47 24zM258 91v131
q-71 -24 -106.5 -46.5t-35.5 -58.5q0 -28 18 -45.5t46 -17.5q39 0 78 37zM239 657l94 -151h-55l-87 87l-83 -87h-53l91 151h93z" />
    <glyph glyph-name="atilde" unicode="&#xe3;" horiz-adv-x="427" 
d="M411 80v-54q-53 -35 -86 -35q-57 0 -68 46q-58 -46 -121 -46q-48 0 -79 32.5t-31 77.5q0 26 10 47t21.5 33.5t37.5 26t39.5 19t44.5 16.5l79 28v24q0 79 -81 79q-80 0 -142 -74v97q52 61 149 61q72 0 117.5 -37.5t45.5 -110.5v-231q0 -23 17 -23q15 0 47 24zM258 91v131
q-71 -24 -106.5 -46.5t-35.5 -58.5q0 -28 18 -45.5t46 -17.5q39 0 78 37zM302 643h38q0 -53 -22 -85.5t-57 -32.5q-29 0 -73 17.5t-66 17.5q-29 0 -34 -35h-41q8 115 78 115q28 0 78.5 -17.5t62.5 -17.5q30 0 36 38z" />
    <glyph glyph-name="adieresis" unicode="&#xe4;" horiz-adv-x="427" 
d="M411 80v-54q-53 -35 -86 -35q-57 0 -68 46q-58 -46 -121 -46q-48 0 -79 32.5t-31 77.5q0 26 10 47t21.5 33.5t37.5 26t39.5 19t44.5 16.5l79 28v24q0 79 -81 79q-80 0 -142 -74v97q52 61 149 61q72 0 117.5 -37.5t45.5 -110.5v-231q0 -23 17 -23q15 0 47 24zM258 91v131
q-71 -24 -106.5 -46.5t-35.5 -58.5q0 -28 18 -45.5t46 -17.5q39 0 78 37zM101 628q19 0 32.5 -13t13.5 -33t-13.5 -33.5t-32.5 -13.5t-33 13.5t-14 33.5q0 19 13.5 32.5t33.5 13.5zM287 628q19 0 32.5 -13t13.5 -33t-13.5 -33.5t-32.5 -13.5t-33 13.5t-14 33.5
q0 19 13.5 32.5t33.5 13.5z" />
    <glyph glyph-name="aring" unicode="&#xe5;" horiz-adv-x="427" 
d="M411 80v-54q-53 -35 -86 -35q-57 0 -68 46q-58 -46 -121 -46q-48 0 -79 32.5t-31 77.5q0 26 10 47t21.5 33.5t37.5 26t39.5 19t44.5 16.5l79 28v24q0 79 -81 79q-80 0 -142 -74v97q52 61 149 61q72 0 117.5 -37.5t45.5 -110.5v-231q0 -23 17 -23q15 0 47 24zM258 91v131
q-71 -24 -106.5 -46.5t-35.5 -58.5q0 -28 18 -45.5t46 -17.5q39 0 78 37zM194 691q38 0 65.5 -27.5t27.5 -65.5t-27.5 -65.5t-65.5 -27.5t-65.5 27.5t-27.5 65.5t27.5 65.5t65.5 27.5zM194 653q-22 0 -38.5 -16.5t-16.5 -38.5t16.5 -38.5t38.5 -16.5t38.5 16.5t16.5 38.5
t-16.5 38.5t-38.5 16.5z" />
    <glyph glyph-name="ae" unicode="&#xe6;" horiz-adv-x="667" 
d="M629 128v-89q-66 -48 -151 -48q-49 0 -91 19t-63 51q-86 -70 -172 -70q-51 0 -84 32.5t-33 82.5q0 61 52 95t175 67q8 110 -71 110q-80 0 -146 -77v107q59 50 145 50q87 0 134 -58q60 58 132 58q80 0 127.5 -58t43.5 -157h-276q0 -83 40 -127.5t99 -44.5q63 0 139 57z
M362 302h177q-5 39 -25.5 57.5t-61.5 18.5q-31 0 -54.5 -20t-35.5 -56zM262 79v145q-73 -27 -104.5 -48.5t-31.5 -51.5t18 -51t43 -21q29 0 75 27z" />
    <glyph glyph-name="ccedilla" unicode="&#xe7;" horiz-adv-x="438" 
d="M403 105v-88q-56 -26 -142 -26l-4 -14q54 -15 54 -63q0 -54 -43 -76.5t-112 -12.5v55q36 -5 60 2t24 24q0 13 -15.5 20.5t-42.5 4.5l24 68q-75 18 -120 76.5t-45 140.5q0 111 60 176.5t162 65.5q60 0 130 -31v-95q-66 44 -124 44q-61 0 -99 -42t-38 -110q0 -69 41 -109
t111 -40q52 0 119 30z" />
    <glyph glyph-name="egrave" unicode="&#xe8;" horiz-adv-x="479" 
d="M438 130v-86q-80 -53 -179 -53q-100 0 -159 70.5t-59 168.5q0 102 58.5 165t151.5 63q92 0 143.5 -62.5t51.5 -184.5h-316q21 -135 151 -135q74 0 157 54zM132 270h226q-2 51 -30 81t-75 30q-102 0 -121 -111zM233 654l67 -147h-55l-112 147h100z" />
    <glyph glyph-name="eacute" unicode="&#xe9;" horiz-adv-x="479" 
d="M438 130v-86q-80 -53 -179 -53q-100 0 -159 70.5t-59 168.5q0 102 58.5 165t151.5 63q92 0 143.5 -62.5t51.5 -184.5h-316q21 -135 151 -135q74 0 157 54zM132 270h226q-2 51 -30 81t-75 30q-102 0 -121 -111zM251 654h100l-112 -147h-55z" />
    <glyph glyph-name="ecircumflex" unicode="&#xea;" horiz-adv-x="479" 
d="M438 130v-86q-80 -53 -179 -53q-100 0 -159 70.5t-59 168.5q0 102 58.5 165t151.5 63q92 0 143.5 -62.5t51.5 -184.5h-316q21 -135 151 -135q74 0 157 54zM132 270h226q-2 51 -30 81t-75 30q-102 0 -121 -111zM285 657l94 -151h-55l-87 87l-83 -87h-53l91 151h93z" />
    <glyph glyph-name="edieresis" unicode="&#xeb;" horiz-adv-x="479" 
d="M438 130v-86q-80 -53 -179 -53q-100 0 -159 70.5t-59 168.5q0 102 58.5 165t151.5 63q92 0 143.5 -62.5t51.5 -184.5h-316q21 -135 151 -135q74 0 157 54zM132 270h226q-2 51 -30 81t-75 30q-102 0 -121 -111zM147 628q19 0 32.5 -13t13.5 -33t-13.5 -33.5t-32.5 -13.5
t-33 13.5t-14 33.5q0 19 13.5 32.5t33.5 13.5zM333 628q19 0 32.5 -13t13.5 -33t-13.5 -33.5t-32.5 -13.5t-33 13.5t-14 33.5q0 19 13.5 32.5t33.5 13.5z" />
    <glyph glyph-name="igrave" unicode="&#xec;" horiz-adv-x="219" 
d="M154 449v-449h-89v449h89zM103 654l67 -147h-55l-112 147h100z" />
    <glyph glyph-name="iacute" unicode="&#xed;" horiz-adv-x="219" 
d="M154 449v-449h-89v449h89zM121 654h100l-112 -147h-55z" />
    <glyph glyph-name="icircumflex" unicode="&#xee;" horiz-adv-x="219" 
d="M154 449v-449h-89v449h89zM155 657l94 -151h-55l-87 87l-83 -87h-53l91 151h93z" />
    <glyph glyph-name="idieresis" unicode="&#xef;" horiz-adv-x="219" 
d="M154 449v-449h-89v449h89zM17 628q19 0 32.5 -13t13.5 -33t-13.5 -33.5t-32.5 -13.5t-33 13.5t-14 33.5q0 19 13.5 32.5t33.5 13.5zM203 628q19 0 32.5 -13t13.5 -33t-13.5 -33.5t-32.5 -13.5t-33 13.5t-14 33.5q0 19 13.5 32.5t33.5 13.5z" />
    <glyph glyph-name="eth" unicode="&#xf0;" horiz-adv-x="563" 
d="M127 229q0 -71 40 -114.5t105 -43.5q71 0 112 42t41 115q0 65 -43 107.5t-110 42.5q-63 0 -104 -42t-41 -107zM502 637l-103 -49q58 -66 87.5 -148.5t29.5 -157.5q0 -142 -63.5 -216.5t-179.5 -74.5q-103 0 -170 67t-67 171q0 97 68.5 163t168.5 66q79 0 128 -42l2 2
q-25 65 -88 130l-133 -63l-28 53l113 53q-31 23 -67 40l61 59q48 -21 92 -58l121 58z" />
    <glyph glyph-name="ntilde" unicode="&#xf1;" 
d="M150 449v-59h2q54 68 134 68q67 0 110 -46.5t43 -134.5v-277h-89v278q0 50 -24 79.5t-64 29.5q-54 0 -112 -65v-322h-89v449h89zM359 643h38q0 -53 -22 -85.5t-57 -32.5q-28 0 -72 17.5t-67 17.5q-29 0 -34 -35h-41q8 115 78 115q28 0 78.5 -17.5t62.5 -17.5q30 0 36 38z
" />
    <glyph glyph-name="ograve" unicode="&#xf2;" horiz-adv-x="552" 
d="M273 458q106 0 174.5 -64.5t68.5 -164.5q0 -106 -67.5 -172t-175.5 -66q-103 0 -170 67t-67 171q0 97 68.5 163t168.5 66zM272 378q-63 0 -104 -42t-41 -107q0 -71 40 -114.5t105 -43.5q71 0 112 42t41 115q0 65 -43 107.5t-110 42.5zM270 654l67 -147h-55l-112 147h100z
" />
    <glyph glyph-name="oacute" unicode="&#xf3;" horiz-adv-x="552" 
d="M273 458q106 0 174.5 -64.5t68.5 -164.5q0 -106 -67.5 -172t-175.5 -66q-103 0 -170 67t-67 171q0 97 68.5 163t168.5 66zM272 378q-63 0 -104 -42t-41 -107q0 -71 40 -114.5t105 -43.5q71 0 112 42t41 115q0 65 -43 107.5t-110 42.5zM288 654h100l-112 -147h-55z" />
    <glyph glyph-name="ocircumflex" unicode="&#xf4;" horiz-adv-x="552" 
d="M273 458q106 0 174.5 -64.5t68.5 -164.5q0 -106 -67.5 -172t-175.5 -66q-103 0 -170 67t-67 171q0 97 68.5 163t168.5 66zM272 378q-63 0 -104 -42t-41 -107q0 -71 40 -114.5t105 -43.5q71 0 112 42t41 115q0 65 -43 107.5t-110 42.5zM322 657l94 -151h-55l-87 87
l-83 -87h-53l91 151h93z" />
    <glyph glyph-name="otilde" unicode="&#xf5;" horiz-adv-x="552" 
d="M273 458q106 0 174.5 -64.5t68.5 -164.5q0 -106 -67.5 -172t-175.5 -66q-103 0 -170 67t-67 171q0 97 68.5 163t168.5 66zM272 378q-63 0 -104 -42t-41 -107q0 -71 40 -114.5t105 -43.5q71 0 112 42t41 115q0 65 -43 107.5t-110 42.5zM385 643h38q0 -53 -22 -85.5
t-57 -32.5q-28 0 -72 17.5t-67 17.5q-29 0 -34 -35h-41q8 115 78 115q28 0 78.5 -17.5t62.5 -17.5q30 0 36 38z" />
    <glyph glyph-name="odieresis" unicode="&#xf6;" horiz-adv-x="552" 
d="M273 458q106 0 174.5 -64.5t68.5 -164.5q0 -106 -67.5 -172t-175.5 -66q-103 0 -170 67t-67 171q0 97 68.5 163t168.5 66zM272 378q-63 0 -104 -42t-41 -107q0 -71 40 -114.5t105 -43.5q71 0 112 42t41 115q0 65 -43 107.5t-110 42.5zM184 628q20 0 33 -13t13 -33
t-13.5 -33.5t-32.5 -13.5q-20 0 -33.5 13.5t-13.5 33.5q0 19 13.5 32.5t33.5 13.5zM370 628q20 0 33 -13t13 -33t-13.5 -33.5t-32.5 -13.5q-20 0 -33.5 13.5t-13.5 33.5q0 19 13.5 32.5t33.5 13.5z" />
    <glyph glyph-name="divide" unicode="&#xf7;" horiz-adv-x="584" 
d="M56 394h472v-82h-472v82zM292 259q22 0 37.5 -15.5t15.5 -37.5t-15.5 -37.5t-37.5 -15.5t-37.5 15.5t-15.5 37.5t15.5 37.5t37.5 15.5zM292 553q22 0 37.5 -15.5t15.5 -37.5t-15.5 -37.5t-37.5 -15.5t-37.5 15.5t-15.5 37.5t15.5 37.5t37.5 15.5z" />
    <glyph glyph-name="oslash" unicode="&#xf8;" horiz-adv-x="552" 
d="M160 123l199 232q-40 23 -87 23q-63 0 -104 -42t-41 -107q0 -64 33 -106zM138 29l-56 -66l-33 30l55 64q-68 68 -68 172q0 97 68.5 163t168.5 66q85 0 140 -39l47 54l33 -30l-44 -51q67 -67 67 -163q0 -106 -67.5 -172t-175.5 -66q-75 0 -135 38zM392 325l-199 -232
q35 -22 79 -22q71 0 112 42t41 115q0 57 -33 97z" />
    <glyph glyph-name="ugrave" unicode="&#xf9;" 
d="M437 0h-89v57q-28 -30 -64 -48t-69 -18q-70 0 -112.5 47.5t-42.5 131.5v279h89v-285q0 -99 92 -99q62 0 107 63v321h89v-449zM244 654l67 -147h-55l-112 147h100z" />
    <glyph glyph-name="uacute" unicode="&#xfa;" 
d="M437 0h-89v57q-28 -30 -64 -48t-69 -18q-70 0 -112.5 47.5t-42.5 131.5v279h89v-285q0 -99 92 -99q62 0 107 63v321h89v-449zM262 654h100l-112 -147h-55z" />
    <glyph glyph-name="ucircumflex" unicode="&#xfb;" 
d="M437 0h-89v57q-28 -30 -64 -48t-69 -18q-70 0 -112.5 47.5t-42.5 131.5v279h89v-285q0 -99 92 -99q62 0 107 63v321h89v-449zM296 657l94 -151h-55l-87 87l-83 -87h-53l91 151h93z" />
    <glyph glyph-name="udieresis" unicode="&#xfc;" 
d="M437 0h-89v57q-28 -30 -64 -48t-69 -18q-70 0 -112.5 47.5t-42.5 131.5v279h89v-285q0 -99 92 -99q62 0 107 63v321h89v-449zM158 628q20 0 33 -13t13 -33t-13.5 -33.5t-32.5 -13.5q-20 0 -33.5 13.5t-13.5 33.5q0 19 13.5 32.5t33.5 13.5zM344 628q20 0 33 -13t13 -33
t-13.5 -33.5t-32.5 -13.5q-20 0 -33.5 13.5t-13.5 33.5q0 19 13.5 32.5t33.5 13.5z" />
    <glyph glyph-name="yacute" unicode="&#xfd;" horiz-adv-x="438" 
d="M438 449l-318 -679h-99l153 326l-174 353h101l121 -253l116 253h100zM231 654h100l-112 -147h-55z" />
    <glyph glyph-name="thorn" unicode="&#xfe;" 
d="M146 11v-241h-89v912h89v-233h65q123 0 188 -58.5t65 -169.5q0 -101 -64 -165.5t-164 -64.5q-41 0 -90 20zM146 369v-278q42 -20 84 -20q62 0 102.5 43t40.5 108q0 71 -37 109t-109 38h-81z" />
    <glyph glyph-name="ydieresis" unicode="&#xff;" horiz-adv-x="438" 
d="M438 449l-318 -679h-99l153 326l-174 353h101l121 -253l116 253h100zM127 628q19 0 32.5 -13t13.5 -33t-13.5 -33.5t-32.5 -13.5t-33 13.5t-14 33.5q0 19 13.5 32.5t33.5 13.5zM313 628q19 0 32.5 -13t13.5 -33t-13.5 -33.5t-32.5 -13.5t-33 13.5t-14 33.5
q0 19 13.5 32.5t33.5 13.5z" />
    <glyph glyph-name="dotlessi" unicode="&#x131;" horiz-adv-x="219" 
d="M154 449v-449h-89v449h89z" />
    <glyph glyph-name="Lslash" unicode="&#x141;" horiz-adv-x="490" 
d="M310 536v-88l-138 -114v-246h308v-88h-406v263l-89 -73v88l89 73v331h98v-260z" />
    <glyph glyph-name="lslash" unicode="&#x142;" horiz-adv-x="219" 
d="M233 482v-78l-79 -64v-340h-89v276l-79 -64v78l79 64v328h89v-264z" />
    <glyph glyph-name="OE" unicode="&#x152;" horiz-adv-x="917" 
d="M875 682v-88h-279v-205h269v-88h-269v-213h290v-88h-444q-169 0 -282 93.5t-113 246.5q0 152 107.5 247t278.5 95h442zM498 85v512h-57q-138 0 -215.5 -75t-77.5 -181q0 -109 81 -182.5t201 -73.5h68z" />
    <glyph glyph-name="oe" unicode="&#x153;" horiz-adv-x="833" 
d="M798 129v-90q-24 -15 -41 -23.5t-49.5 -16.5t-71.5 -8q-112 0 -167 89q-72 -89 -195 -89q-98 0 -168.5 65.5t-70.5 157.5q0 108 68 176t177 68q118 0 189 -93q55 93 161 93q72 0 121.5 -57t44.5 -158h-280q-6 -77 34 -124.5t105 -47.5q69 0 143 58zM525 302h183
q-9 76 -83 76q-76 0 -100 -76zM278 378q-66 0 -109 -46t-43 -114q0 -60 43.5 -103.5t105.5 -43.5q67 0 107.5 43.5t40.5 112.5q0 62 -42 106.5t-103 44.5z" />
    <glyph glyph-name="Scaron" unicode="&#x160;" horiz-adv-x="458" 
d="M399 643v-111q-75 71 -160 71q-47 0 -77.5 -22.5t-30.5 -58.5q0 -30 22 -56t54.5 -43.5t71 -41t71 -48t54.5 -65.5t22 -92q0 -80 -54 -132.5t-137 -52.5q-107 0 -191 63v124q77 -99 180 -99q53 0 82 27t29 59q0 39 -30.5 71.5t-73.5 57.5t-86.5 52.5t-74 69t-30.5 93.5
q0 83 56.5 132.5t150.5 49.5q80 0 152 -48zM275 727h-93l-91 151h53l83 -87l87 87h55z" />
    <glyph glyph-name="scaron" unicode="&#x161;" horiz-adv-x="385" 
d="M324 421v-88q-71 47 -130 47q-27 0 -43 -11.5t-16 -29.5q0 -15 24.5 -35t84.5 -55q56 -37 78.5 -64.5t22.5 -61.5q0 -59 -42 -95.5t-106 -36.5q-77 0 -156 41v96q86 -59 147 -59q29 2 47.5 15t18.5 36q0 20 -33 43t-72 42.5t-72 54.5t-33 76q0 57 40 89.5t108 32.5
q62 0 132 -37zM238 507h-93l-91 151h53l83 -87l87 87h55z" />
    <glyph glyph-name="Ydieresis" unicode="&#x178;" horiz-adv-x="604" 
d="M301 447l185 235h118l-253 -322v-360h-98v361l-253 321h118zM210 848q20 0 33 -13t13 -33t-13.5 -33.5t-32.5 -13.5q-20 0 -33.5 13.5t-13.5 33.5q0 19 13.5 32.5t33.5 13.5zM396 848q20 0 33 -13t13 -33t-13.5 -33.5t-32.5 -13.5q-20 0 -33.5 13.5t-13.5 33.5
q0 19 13.5 32.5t33.5 13.5z" />
    <glyph glyph-name="Zcaron" unicode="&#x17d;" horiz-adv-x="646" 
d="M450 594h-407v88h588l-434 -594h434v-88h-615zM369 727h-93l-91 151h53l83 -87l87 87h55z" />
    <glyph glyph-name="zcaron" unicode="&#x17e;" horiz-adv-x="417" 
d="M404 449l-239 -369h240v-80h-394l238 369h-228v80h383zM254 507h-93l-91 151h53l83 -87l87 87h55z" />
    <glyph glyph-name="florin" unicode="&#x192;" horiz-adv-x="552" 
d="M23 -198l17 76q48 -11 75 -11q48 0 58 59l90 524h-98l11 68h99l14 85q11 66 45.5 96t94.5 30q37 0 101 -19l-17 -75q-57 14 -78 14q-29 0 -41.5 -18.5t-19.5 -61.5l-9 -51h99l-12 -68h-100l-93 -533q-12 -70 -41.5 -98.5t-88.5 -28.5q-47 0 -106 12z" />
    <glyph glyph-name="circumflex" unicode="&#x2c6;" horiz-adv-x="333" 
d="M212 657l94 -151h-55l-87 87l-83 -87h-53l91 151h93z" />
    <glyph glyph-name="caron" unicode="&#x2c7;" horiz-adv-x="333" 
d="M212 507h-93l-91 151h53l83 -87l87 87h55z" />
    <glyph glyph-name="uni02C9" unicode="&#x2c9;" horiz-adv-x="333" 
d="M332 615v-73h-331v73h331z" />
    <glyph glyph-name="breve" unicode="&#x2d8;" horiz-adv-x="333" 
d="M240 643h68q-11 -62 -47.5 -95.5t-92.5 -33.5q-58 0 -95 33.5t-48 95.5h67q15 -62 77 -62q57 0 71 62z" />
    <glyph glyph-name="dotaccent" unicode="&#x2d9;" horiz-adv-x="333" 
d="M167 628q19 0 32.5 -13t13.5 -33t-13.5 -33.5t-32.5 -13.5t-33 13.5t-14 33.5q0 19 13.5 32.5t33.5 13.5z" />
    <glyph glyph-name="ring" unicode="&#x2da;" horiz-adv-x="333" 
d="M167 691q38 0 65.5 -27.5t27.5 -65.5t-27.5 -65.5t-65.5 -27.5t-65.5 27.5t-27.5 65.5t27.5 65.5t65.5 27.5zM167 653q-23 0 -39 -16.5t-16 -38.5t16 -38.5t39 -16.5t39 16.5t16 38.5t-16 38.5t-39 16.5z" />
    <glyph glyph-name="ogonek" unicode="&#x2db;" horiz-adv-x="333" 
d="M266 -96v-67q-36 -15 -73 -15q-44 0 -72.5 26.5t-28.5 67.5q0 48 44 93h67q-35 -43 -35 -70q0 -19 15 -32.5t36 -13.5q7 0 47 11z" />
    <glyph glyph-name="tilde" unicode="&#x2dc;" horiz-adv-x="333" 
d="M275 643h38q0 -53 -22 -85.5t-57 -32.5q-28 0 -72 17.5t-67 17.5q-29 0 -34 -35h-41q8 115 78 115q28 0 78.5 -17.5t62.5 -17.5q30 0 36 38z" />
    <glyph glyph-name="hungarumlaut" unicode="&#x2dd;" horiz-adv-x="333" 
d="M69 654h100l-112 -147h-55zM229 654h100l-112 -147h-55z" />
    <glyph glyph-name="uni03A9" unicode="&#x3a9;" horiz-adv-x="638" 
d="M167 77v2q-116 118 -116 290q0 136 76.5 226t193.5 90q120 0 191.5 -93t71.5 -217q0 -93 -33.5 -170.5t-82.5 -125.5v-2h129v-77h-225v56q51 37 85.5 114t34.5 185q0 101 -45.5 176t-126.5 75q-80 0 -128 -72t-48 -183q0 -100 35 -180t84 -115v-56h-224v77h128z" />
    <glyph glyph-name="uni03BC" unicode="&#x3bc;" horiz-adv-x="552" 
d="M469 449v-449h-82v53h-2q-35 -62 -105 -62q-65 0 -102 54h-2v-217h-89v621h89v-248q0 -70 27 -106.5t72 -36.5q50 0 77.5 37t27.5 104v250h89z" />
    <glyph glyph-name="pi" unicode="&#x3c0;" horiz-adv-x="529" 
d="M506 424h-68v-285q0 -93 12 -139h-88q-15 30 -15 134v290h-144q-4 -97 -22 -226t-41 -198h-89q24 79 42 204.5t20 219.5q-62 0 -94 -10l-12 62q40 28 139 28h367z" />
    <glyph glyph-name="endash" unicode="&#x2013;" 
d="M509 285v-64h-518v64h518z" />
    <glyph glyph-name="emdash" unicode="&#x2014;" horiz-adv-x="1000" 
d="M1009 285v-64h-1018v64h1018z" />
    <glyph glyph-name="quoteleft" unicode="&#x2018;" horiz-adv-x="219" 
d="M160 691v-19q-28 -24 -35 -47.5t-5 -59.5q24 -3 38.5 -19t14.5 -40q0 -29 -17 -45t-43 -16q-30 0 -48.5 27t-18.5 66q0 56 29.5 96.5t84.5 56.5z" />
    <glyph glyph-name="quoteright" unicode="&#x2019;" horiz-adv-x="219" 
d="M59 445v19q28 24 35 47.5t5 59.5q-24 3 -38.5 19t-14.5 40q0 29 17 45t43 16q30 0 48.5 -27t18.5 -66q0 -56 -29.5 -96.5t-84.5 -56.5z" />
    <glyph glyph-name="quotesinglbase" unicode="&#x201a;" horiz-adv-x="219" 
d="M59 -115v19q28 24 35 47.5t5 59.5q-24 3 -38.5 19t-14.5 40q0 29 17 45t43 16q30 0 48.5 -27t18.5 -66q0 -56 -29.5 -96.5t-84.5 -56.5z" />
    <glyph glyph-name="quotedblleft" unicode="&#x201c;" horiz-adv-x="427" 
d="M373 691v-19q-28 -24 -35 -47.5t-5 -59.5q24 -3 38.5 -19t14.5 -40q0 -29 -17 -45t-43 -16q-30 0 -48.5 27t-18.5 66q0 56 29.5 96.5t84.5 56.5zM155 691v-19q-28 -24 -35 -47.5t-5 -59.5q24 -3 38.5 -19t14.5 -40q0 -29 -17 -45t-43 -16q-30 0 -48.5 27t-18.5 66
q0 56 29.5 96.5t84.5 56.5z" />
    <glyph glyph-name="quotedblright" unicode="&#x201d;" horiz-adv-x="427" 
d="M272 445v19q28 24 35 47.5t5 59.5q-24 3 -38.5 19t-14.5 40q0 29 17 45t43 16q30 0 48.5 -27t18.5 -66q0 -56 -29.5 -96.5t-84.5 -56.5zM54 445v19q28 24 35 47.5t5 59.5q-24 3 -38.5 19t-14.5 40q0 29 17 45t43 16q30 0 48.5 -27t18.5 -66q0 -56 -29.5 -96.5
t-84.5 -56.5z" />
    <glyph glyph-name="quotedblbase" unicode="&#x201e;" horiz-adv-x="427" 
d="M283 -115v19q28 24 35 47.5t5 59.5q-24 3 -38.5 19t-14.5 40q0 29 17 45t43 16q30 0 48.5 -27t18.5 -66q0 -56 -29.5 -96.5t-84.5 -56.5zM64 -115v19q28 24 35 47.5t5 59.5q-24 3 -38.5 19t-14.5 40q0 29 17 45t43 16q30 0 48.5 -27t18.5 -66q0 -56 -29.5 -96.5
t-84.5 -56.5z" />
    <glyph glyph-name="dagger" unicode="&#x2020;" horiz-adv-x="490" 
d="M249 691q45 0 45 -94q0 -23 -4.5 -54t-14 -76t-10.5 -53q76 26 127 26q27 0 49 -11.5t22 -32.5q0 -22 -20 -34t-47 -12q-36 0 -132 26q32 -371 32 -444q0 -78 -10.5 -120t-41.5 -42q-32 0 -42.5 34t-10.5 109q0 145 34 463q-80 -26 -127 -26q-28 0 -49.5 10.5t-21.5 32.5
q0 47 73 47q53 0 125 -26q-28 133 -28 182q0 95 52 95z" />
    <glyph glyph-name="daggerdbl" unicode="&#x2021;" horiz-adv-x="490" 
d="M244 691q49 0 49 -90q0 -40 -29 -165q80 28 131 28q68 0 68 -47q0 -21 -22.5 -32t-49.5 -11q-32 0 -127 25q0 -23 8 -83t8 -84q0 -25 -8 -85.5t-8 -85.5q23 9 63.5 17.5t64.5 8.5q27 0 49 -11.5t22 -32.5q0 -46 -70 -46q-54 0 -129 28q29 -105 29 -163q0 -92 -48 -92
t-48 89q0 57 29 166q-80 -28 -132 -28q-67 0 -67 46q0 22 22.5 33t50.5 11q45 0 126 -25q-1 13 -9 86q-7 84 -7 86q0 23 8 83.5t8 81.5q-84 -25 -128 -25q-27 0 -49 11t-22 32q0 47 71 47q23 0 66 -9.5t63 -19.5q-11 34 -20.5 87t-9.5 86t11 58t36 25z" />
    <glyph glyph-name="bullet" unicode="&#x2022;" horiz-adv-x="354" 
d="M177 465q51 0 87.5 -36.5t36.5 -87.5t-36.5 -87.5t-87.5 -36.5t-87.5 36.5t-36.5 87.5t36.5 87.5t87.5 36.5z" />
    <glyph glyph-name="ellipsis" unicode="&#x2026;" horiz-adv-x="1000" 
d="M166 111q25 0 42.5 -17.5t17.5 -42.5t-17.5 -42.5t-42.5 -17.5t-42.5 17.5t-17.5 42.5t17.5 42.5t42.5 17.5zM500 111q25 0 42.5 -17.5t17.5 -42.5t-17.5 -42.5t-42.5 -17.5t-42.5 17.5t-17.5 42.5t17.5 42.5t42.5 17.5zM834 111q25 0 42.5 -17.5t17.5 -42.5t-17.5 -42.5
t-42.5 -17.5t-42.5 17.5t-17.5 42.5t17.5 42.5t42.5 17.5z" />
    <glyph glyph-name="perthousand" unicode="&#x2030;" horiz-adv-x="1010" 
d="M845 222q-32 0 -55.5 -23.5t-23.5 -55.5q0 -33 23.5 -56t55.5 -23q33 0 56 23t23 56q0 32 -23 55.5t-56 23.5zM845 296q62 0 107.5 -45t45.5 -108t-45.5 -108t-107.5 -45q-63 0 -108 44.5t-45 108.5q0 63 45 108t108 45zM585 691l-449 -701h-75l449 701h75zM482 296
q62 0 107.5 -45t45.5 -108t-45.5 -108t-107.5 -45q-63 0 -108 44.5t-45 108.5q0 63 45 108t108 45zM482 222q-32 0 -55.5 -23.5t-23.5 -55.5q0 -33 23.5 -56t55.5 -23q33 0 56 23t23 56q0 32 -23 55.5t-56 23.5zM166 690q62 0 107.5 -45t45.5 -108t-45.5 -108t-107.5 -45
q-63 0 -108 44.5t-45 108.5q0 63 45 108t108 45zM166 616q-32 0 -55.5 -23.5t-23.5 -55.5q0 -33 23.5 -56t55.5 -23q33 0 56 23t23 56q0 32 -23 55.5t-56 23.5z" />
    <glyph glyph-name="guilsinglleft" unicode="&#x2039;" horiz-adv-x="313" 
d="M123 225l148 -225h-88l-147 225l147 225h88z" />
    <glyph glyph-name="guilsinglright" unicode="&#x203a;" horiz-adv-x="313" 
d="M190 225l-148 225h88l147 -225l-147 -225h-88z" />
    <glyph glyph-name="fraction" unicode="&#x2044;" horiz-adv-x="198" 
d="M360 691l-455 -718h-67l455 718h67z" />
    <glyph glyph-name="Euro" unicode="&#x20ac;" horiz-adv-x="610" 
d="M208 444h290l-14 -76h-288q-1 -9 -1 -28v-26h279l-14 -76h-252q20 -76 67.5 -116.5t116.5 -40.5q88 0 169 67v-107q-76 -50 -172 -50q-110 0 -184 65t-98 182h-79l13 76h57v20q0 21 1 34h-71l13 76h69q25 112 102 179.5t180 67.5q81 0 173 -33l-19 -94q-89 37 -155 37
q-137 0 -183 -157z" />
    <glyph glyph-name="afii61289" unicode="&#x2113;" horiz-adv-x="450" 
d="M393 156l39 -38q-62 -123 -176 -123q-77 0 -115.5 48t-42.5 124v12q-19 -17 -50 -42l-24 51q63 56 74 67v256q0 120 43 177.5t107 57.5q58 0 88 -45t30 -117q0 -157 -181 -343v-40q1 -66 26 -99t64 -33q67 0 118 87zM185 511v-181q123 148 123 257q0 90 -57 90
q-27 0 -46.5 -39.5t-19.5 -126.5z" />
    <glyph glyph-name="trademark" unicode="&#x2122;" horiz-adv-x="1000" 
d="M239 318v339h-129v59h325v-59h-130v-339h-66zM480 318v398h98l99 -318h2l96 318h96v-398h-61v334h-2l-100 -334h-60l-105 339h-2v-339h-61z" />
    <glyph glyph-name="Omega" unicode="&#x2126;" horiz-adv-x="638" 
d="M167 77v2q-116 118 -116 290q0 136 76.5 226t193.5 90q120 0 191.5 -93t71.5 -217q0 -93 -33.5 -170.5t-82.5 -125.5v-2h129v-77h-225v56q51 37 85.5 114t34.5 185q0 101 -45.5 176t-126.5 75q-80 0 -128 -72t-48 -183q0 -100 35 -180t84 -115v-56h-224v77h128z" />
    <glyph glyph-name="estimated" unicode="&#x212e;" horiz-adv-x="844" 
d="M810 331h-629q-5 0 -5 -4v-190q0 -12 8 -22q101 -104 238 -104q148 0 251 116h55q-53 -62 -134 -98.5t-173 -36.5q-161 0 -274.5 102t-113.5 247t113.5 247t274.5 102t275 -102t114 -247v-10zM667 356v192q0 13 -9 22q-102 100 -236 100q-136 0 -237 -103q-9 -9 -9 -24
v-187q0 -6 5 -6h482q4 0 4 6z" />
    <glyph glyph-name="partialdiff" unicode="&#x2202;" horiz-adv-x="507" 
d="M94 639l-28 70q66 53 157 53q100 0 169.5 -93.5t69.5 -270.5q0 -184 -64.5 -293t-180.5 -109q-85 0 -132.5 67t-47.5 157q0 112 57.5 181.5t137.5 69.5q51 0 88 -26t51 -54h1q1 9 1 36q0 109 -46 183.5t-115 74.5q-63 0 -118 -46zM226 74h1q54 0 90.5 68t45.5 163
q-10 33 -41 61.5t-73 28.5q-51 0 -86 -53t-35 -125q0 -63 27 -103t71 -40z" />
    <glyph glyph-name="Delta" unicode="&#x2206;" horiz-adv-x="587" 
d="M27 0v58l216 633h106l211 -631v-60h-533zM119 76h344l-114 327q-7 26 -28 90.5t-27 86.5h-3q-4 -20 -24 -79.5t-27 -83.5z" />
    <glyph glyph-name="product" unicode="&#x220f;" horiz-adv-x="643" 
d="M618 589h-94v-682h-91v682h-225v-682h-90v682h-94v86h594v-86z" />
    <glyph glyph-name="summation" unicode="&#x2211;" horiz-adv-x="502" 
d="M483 -93h-461v62l231 322l-222 318v66h437v-80h-315v-3l203 -286l-223 -308v-3h350v-88z" />
    <glyph glyph-name="minus" unicode="&#x2212;" horiz-adv-x="584" 
d="M56 394h472v-82h-472v82z" />
    <glyph glyph-name="uni2215" unicode="&#x2215;" horiz-adv-x="198" 
d="M360 691l-455 -718h-67l455 718h67z" />
    <glyph glyph-name="uni2219" unicode="&#x2219;" horiz-adv-x="260" 
d="M130 405q25 0 42.5 -17.5t17.5 -42.5t-17.5 -42.5t-42.5 -17.5t-42.5 17.5t-17.5 42.5t17.5 42.5t42.5 17.5z" />
    <glyph glyph-name="radical" unicode="&#x221a;" horiz-adv-x="530" 
d="M532 806l-202 -945h-76l-140 436l-67 -26l-16 55l140 55l103 -329q2 -10 6 -27t7 -29.5t4 -21.5l1 -1q6 43 14 82l161 751h65z" />
    <glyph glyph-name="infinity" unicode="&#x221e;" horiz-adv-x="721" 
d="M675 280v-1q0 -69 -43 -111.5t-102 -42.5q-43 0 -82 25t-86 83q-44 -53 -83.5 -80.5t-90.5 -27.5q-58 0 -100.5 43t-42.5 107q0 67 42.5 110t107.5 43q83 0 170 -107q22 25 27.5 31t27 26.5t35 27.5t36 14.5t45.5 7.5q61 0 100 -41t39 -107zM195 179h1q8 0 16.5 1.5
t15.5 4t15.5 7.5t13.5 8t14 10.5t13 11t13 13t11.5 12.5t12 13.5t11.5 12.5q-22 28 -31.5 39t-29 30t-39 26.5t-41.5 7.5q-42 0 -66 -29.5t-23 -72.5q0 -40 26 -67.5t67 -27.5zM530 376h-1q-17 0 -33 -6t-32.5 -19.5t-26 -22.5t-25.5 -27.5t-20 -22.5q48 -56 77 -77.5
t64 -21.5q39 0 62.5 29.5t23.5 66.5q0 45 -25 73t-64 28z" />
    <glyph glyph-name="integral" unicode="&#x222b;" horiz-adv-x="349" 
d="M329 817l-12 -65q-14 9 -33 9q-28 0 -45 -24q-28 -34 -28 -168q0 -76 6 -234t6 -242q0 -134 -37 -195q-31 -58 -104 -58q-40 0 -64 15l13 67q27 -10 40 -10q26 0 41 21q28 38 28 159q0 85 -6.5 246.5t-6.5 239.5q0 82 12 130.5t40 79.5q35 41 97 41q31 0 53 -12z" />
    <glyph glyph-name="approxequal" unicode="&#x2248;" horiz-adv-x="506" 
d="M432 420l35 -30q-44 -94 -120 -94q-40 0 -104 38q-52 32 -82 32q-28 0 -47 -17.5t-40 -50.5l-36 30q21 42 55 67.5t74 25.5q9 0 17.5 -1t17.5 -4l15 -5t14.5 -7t12 -6.5t12.5 -7t10 -6.5q5 -3 17.5 -10t18 -9.5t14.5 -6.5t16.5 -5.5t16.5 -1.5q44 0 83 69zM432 255
l35 -31q-46 -93 -120 -93q-25 0 -46 8.5t-58 29.5q-53 33 -82 33q-28 0 -47 -18t-40 -52l-36 30q21 43 55 68.5t74 25.5q13 0 24.5 -2t23.5 -7t18.5 -8t18.5 -10.5t14 -8.5q5 -3 16.5 -10t17 -10t15 -7t17.5 -5.5t17 -1.5q26 0 44 16.5t39 52.5z" />
    <glyph glyph-name="notequal" unicode="&#x2260;" horiz-adv-x="506" 
d="M366 482l-38 -86h133v-57h-154l-58 -131h212v-56h-234l-47 -106l-44 18l39 88h-130v56h152l57 131h-209v57h230l47 104z" />
    <glyph glyph-name="lessequal" unicode="&#x2264;" horiz-adv-x="506" 
d="M458 96l-407 211v60l407 210v-67l-351 -171v-3l351 -172v-68zM461 1h-415v58h415v-58z" />
    <glyph glyph-name="greaterequal" unicode="&#x2265;" horiz-adv-x="506" 
d="M52 577l408 -210v-60l-408 -211v68l350 172v2l-350 172v67zM461 1h-414v58h414v-58z" />
    <glyph glyph-name="lozenge" unicode="&#x25ca;" horiz-adv-x="530" 
d="M482 337l-182 -380h-74l-178 380l182 381h74zM400 335l-116 248q-12 29 -17 56h-3q-7 -30 -18 -56l-116 -244l117 -251q10 -30 16 -54h4q8 33 16 53z" />
    </font>
</defs>
</svg>
