<?xml version="1.0" standalone="no"?>
<!DOCTYPE svg PUBLIC "-//W3C//DTD SVG 1.1//EN" "http://www.w3.org/Graphics/SVG/1.1/DTD/svg11.dtd" >
<svg xmlns="http://www.w3.org/2000/svg" xmlns:xlink="http://www.w3.org/1999/xlink" version="1.1">
<metadata>
Created by FontForge 20170731 at Thu May 15 14:19:35 2003
 By ,,,
Copyright (c) 1990, 1991, 1998, 2002 Adobe Systems Incorporated.  All Rights Reserved. (c) Copyright 1990, 1991, 1998, 2002 The Monotype Corporation PLC.
</metadata>
<defs>
<font id="GillSansStd-Condensed" horiz-adv-x="333" >
  <font-face 
    font-family="Gill Sans Std Condensed"
    font-weight="400"
    font-stretch="condensed"
    units-per-em="1000"
    panose-1="2 11 5 6 2 1 4 2 2 3"
    ascent="682"
    descent="-318"
    x-height="443"
    cap-height="668"
    bbox="-116 -253 1006 868"
    underline-thickness="50"
    underline-position="-200"
    unicode-range="U+0020-FB02"
  />
<missing-glyph horiz-adv-x="500" 
d="M0 0v700h500v-700h-500zM250 395l170 255h-340zM280 350l170 -255v510zM80 50h340l-170 255zM50 605v-510l170 255z" />
    <glyph glyph-name="f_i" unicode="fi" horiz-adv-x="365" 
d="M55 0v375h-44v68h44v65q0 169 156 169v-65q-45 0 -61.5 -26t-16.5 -84v-59h64v-68h-64v-375h-78zM238 0v443h78v-443h-78zM277 639q19 0 32 -13t13 -32t-13 -32t-32 -13t-32 13t-13 32t13 32t32 13z" />
    <glyph glyph-name="f_l" unicode="fl" horiz-adv-x="365" 
d="M55 0v375h-44v68h44v63q0 171 156 171v-65q-44 0 -61 -25.5t-17 -84.5v-59h64v-68h-64v-375h-78zM238 0v668h78v-668h-78z" />
    <glyph glyph-name=".notdef" horiz-adv-x="500" 
d="M0 0v700h500v-700h-500zM250 395l170 255h-340zM280 350l170 -255v510zM80 50h340l-170 255zM50 605v-510l170 255z" />
    <glyph glyph-name=".null" horiz-adv-x="0" 
 />
    <glyph glyph-name="nonmarkingreturn" 
 />
    <glyph glyph-name="space" unicode=" " 
 />
    <glyph glyph-name="exclam" unicode="!" horiz-adv-x="177" 
d="M34 46q0 22 16 38t39 16t38.5 -16t15.5 -38q0 -23 -16 -39t-38 -16q-23 0 -39 16.5t-16 38.5zM89 674q51 0 51 -121q0 -93 -18 -227.5t-33 -134.5t-33 134.5t-18 227.5q0 121 51 121z" />
    <glyph glyph-name="quotedbl" unicode="&#x22;" horiz-adv-x="355" 
d="M209 716h100v-120l-23 -134h-54l-23 134v120zM47 716h100v-120l-23 -134h-54l-23 134v120z" />
    <glyph glyph-name="numbersign" unicode="#" horiz-adv-x="668" 
d="M240 272h154l34 172h-154zM69 517h147l43 211h73l-43 -211h154l43 211h73l-43 -211h83v-73h-98l-34 -172h132v-73h-147l-43 -211h-73l43 211h-154l-43 -211h-73l43 211h-83v73h98l34 172h-132v73z" />
    <glyph glyph-name="dollar" unicode="$" horiz-adv-x="375" 
d="M26 29v86q70 -42 133 -43v235q-72 56 -102 101t-30 95q0 53 35.5 95.5t96.5 51.5v32h58v-27q53 -1 116 -32v-83q-63 37 -116 38v-201q131 -98 131 -213q0 -61 -35.5 -106t-95.5 -61v-100h-58v94q-79 8 -133 38zM217 260v-177q53 27 53 78q0 57 -53 99zM159 424v147
q-52 -21 -52 -65q0 -41 52 -82z" />
    <glyph glyph-name="percent" unicode="%" horiz-adv-x="604" 
d="M403 170q0 177 92 177t92 -176q0 -178 -92 -178t-92 177zM522 166q0 71 -5.5 99.5t-21.5 28.5q-15 0 -21 -28.5t-6 -100.5q0 -118 27 -118q15 0 21 27t6 92zM17 498q0 177 92 177t92 -176q0 -178 -92 -178t-92 177zM136 494q0 71 -5.5 99.5t-21.5 28.5q-15 0 -21 -28.5
t-6 -100.5q0 -118 27 -118q15 0 21 27t6 92zM98 -30l342 707h62l-341 -707h-63z" />
    <glyph glyph-name="ampersand" unicode="&#x26;" horiz-adv-x="417" 
d="M309 -9l-25 59q-52 -59 -108 -59q-62 0 -105.5 57t-43.5 139q0 117 100 207q-37 83 -37 138q0 59 36 101t87 42q48 0 81 -36t33 -88q0 -85 -98 -171l65 -153h2q15 63 21 109h76q-8 -105 -55 -205l64 -140h-93zM249 129l-85 188q-30 -38 -40.5 -62.5t-10.5 -60.5
q0 -51 20 -84t50 -33q35 0 66 52zM195 451q35 35 46.5 55t11.5 46q0 24 -11.5 40t-29.5 16q-19 0 -31.5 -17.5t-12.5 -43.5q0 -43 27 -96z" />
    <glyph glyph-name="quotesingle" unicode="'" horiz-adv-x="191" 
d="M46 716h100v-120l-23 -134h-54l-23 134v120z" />
    <glyph glyph-name="parenleft" unicode="(" horiz-adv-x="229" 
d="M124 214q0 -163 21.5 -266.5t75.5 -193.5h-45q-74 119 -104.5 220t-30.5 240t30.5 240t104.5 220h45q-54 -90 -75.5 -193.5t-21.5 -266.5z" />
    <glyph glyph-name="parenright" unicode=")" horiz-adv-x="229" 
d="M105 214q0 163 -21.5 266.5t-75.5 193.5h45q74 -119 104.5 -220t30.5 -240t-30.5 -240t-104.5 -220h-45q54 90 75.5 193.5t21.5 266.5z" />
    <glyph glyph-name="asterisk" unicode="*" horiz-adv-x="354" 
d="M324 559q0 -39 -76 -39q-29 0 -47 3q0 -8 -6 -16q50 -30 68 -47t18 -34q0 -13 -10.5 -23t-24.5 -10q-41 0 -59 107q-9 -3 -19 0q-20 -107 -59 -107q-14 0 -24.5 10t-10.5 23q0 17 19.5 35t65.5 46q-8 8 -6 16q-18 -3 -47 -3q-75 0 -75 39q0 13 9.5 22.5t22.5 9.5
q31 0 94 -56q4 9 14 11q-27 63 -27 90q0 17 9.5 28t23.5 11t23.5 -11t9.5 -27q0 -28 -27 -91q10 -2 15 -11q61 56 93 56q14 0 23.5 -9.5t9.5 -22.5z" />
    <glyph glyph-name="plus" unicode="+" horiz-adv-x="667" 
d="M570 311h-195v-195h-83v195h-195v83h195v195h83v-195h195v-83z" />
    <glyph glyph-name="comma" unicode="," horiz-adv-x="177" 
d="M37 -130l-1 9q33 49 28 113q-42 10 -42 53q0 24 15.5 40.5t38.5 16.5q29 0 46.5 -24.5t17.5 -64.5q0 -99 -103 -143z" />
    <glyph glyph-name="hyphen" unicode="-" horiz-adv-x="240" 
d="M29 266h181v-84h-181v84z" />
    <glyph glyph-name="period" unicode="." horiz-adv-x="177" 
d="M89 100q23 0 38.5 -16t15.5 -38q0 -23 -16 -39t-38 -16q-23 0 -39 16.5t-16 38.5t16 38t39 16z" />
    <glyph glyph-name="slash" unicode="/" horiz-adv-x="281" 
d="M10 -9l190 677h71l-190 -677h-71z" />
    <glyph glyph-name="zero" unicode="0" horiz-adv-x="365" 
d="M37 331q0 344 144 344q56 0 89.5 -47.5t45 -119.5t11.5 -177q0 -100 -11 -169t-31.5 -106t-45.5 -52.5t-58 -15.5q-71 0 -107.5 81t-36.5 262zM182 597q-37 0 -47 -66.5t-10 -199.5q0 -135 13 -199.5t44 -64.5q57 0 57 264q0 134 -11 200t-46 66z" />
    <glyph glyph-name="one" unicode="1" horiz-adv-x="365" 
d="M139 0v668h86v-668h-86z" />
    <glyph glyph-name="two" unicode="2" horiz-adv-x="365" 
d="M34 0v13q176 291 176 459q0 51 -23.5 81.5t-63.5 30.5q-27 0 -75 -22v89q52 24 97 24q71 0 112 -50.5t41 -136.5q0 -75 -31.5 -161.5t-110.5 -241.5h156v-85h-278z" />
    <glyph glyph-name="three" unicode="3" horiz-adv-x="365" 
d="M46 8v85q42 -21 74 -21q40 0 64 33t24 88q0 51 -23 82.5t-64 36.5v85q79 12 79 98q0 45 -21.5 71.5t-58.5 26.5q-26 0 -59 -19v84q35 17 77 17q64 0 107 -47.5t43 -118.5q0 -52 -24 -88.5t-77 -63.5q52 -18 80.5 -63t28.5 -109q0 -82 -47.5 -139.5t-116.5 -57.5
q-35 0 -86 20z" />
    <glyph glyph-name="four" unicode="4" horiz-adv-x="365" 
d="M202 0v183h-175v77l181 415h80v-432h37v-60h-37v-183h-86zM202 243v268h-2l-114 -268h116z" />
    <glyph glyph-name="five" unicode="5" horiz-adv-x="365" 
d="M52 6v81q41 -15 67 -15q47 0 74.5 34t27.5 93q0 58 -29 90t-81 32q-23 0 -35 -4v351h212v-78h-128v-198q72 -9 110.5 -58.5t38.5 -131.5q0 -92 -49.5 -153t-124.5 -61q-42 0 -83 18z" />
    <glyph glyph-name="six" unicode="6" horiz-adv-x="365" 
d="M294 668l-128 -263q21 5 36 5q56 0 90.5 -56t34.5 -148q0 -93 -40 -155.5t-101 -62.5q-53 0 -95 52t-42 167q0 137 61 260l98 201h86zM137 199q0 -127 51 -127t51 141q0 113 -52 113q-50 0 -50 -127z" />
    <glyph glyph-name="seven" unicode="7" horiz-adv-x="365" 
d="M98 6l119 584h-171v78h273l-140 -680z" />
    <glyph glyph-name="eight" unicode="8" horiz-adv-x="365" 
d="M39 185q0 113 77 162q-69 54 -69 147q0 90 43.5 135.5t91.5 45.5q51 0 93.5 -47.5t42.5 -133.5q0 -93 -69 -147q77 -50 77 -159q0 -90 -39 -145t-105 -55q-65 0 -104 54t-39 143zM181 383q21 0 33.5 26t12.5 72q0 110 -46 110t-46 -109q0 -46 12.5 -72.5t33.5 -26.5z
M182 72q25 0 40.5 32t15.5 84q0 53 -15 82t-41 29q-55 0 -55 -111q0 -52 15 -84t40 -32z" />
    <glyph glyph-name="nine" unicode="9" horiz-adv-x="365" 
d="M87 0l124 258q-23 -5 -36 -5q-57 0 -91.5 56.5t-34.5 148.5q0 93 40.5 155t100.5 62t98.5 -58.5t38.5 -161.5q0 -132 -60 -257l-95 -198h-85zM239 464q0 127 -50 127q-52 0 -52 -140q0 -114 52 -114q50 0 50 127z" />
    <glyph glyph-name="colon" unicode=":" horiz-adv-x="177" 
d="M89 455q23 0 38.5 -15.5t15.5 -38.5t-16 -39t-38 -16q-23 0 -39 16t-16 39q0 22 16 38t39 16zM89 100q23 0 38.5 -16t15.5 -38q0 -23 -16 -39t-38 -16q-23 0 -39 16.5t-16 38.5t16 38t39 16z" />
    <glyph glyph-name="semicolon" unicode=";" horiz-adv-x="177" 
d="M37 -130l-1 9q33 49 28 113q-42 10 -42 53q0 24 15.5 40.5t38.5 16.5q29 0 46.5 -24.5t17.5 -64.5q0 -99 -103 -143zM89 455q23 0 38.5 -15.5t15.5 -38.5t-16 -39t-38 -16q-23 0 -39 16t-16 39q0 22 16 38t39 16z" />
    <glyph glyph-name="less" unicode="&#x3c;" horiz-adv-x="667" 
d="M97 313v82l474 200v-88l-376 -153l376 -153v-88z" />
    <glyph glyph-name="equal" unicode="=" horiz-adv-x="667" 
d="M570 204h-473v83h473v-83zM570 420h-473v83h473v-83z" />
    <glyph glyph-name="greater" unicode="&#x3e;" horiz-adv-x="667" 
d="M571 313l-474 -200v88l376 153l-376 153v88l474 -200v-82z" />
    <glyph glyph-name="question" unicode="?" horiz-adv-x="250" 
d="M32 578l62 96q64 -4 102 -43t38 -100q0 -41 -21.5 -88.5t-47.5 -85t-47 -88.5t-20 -98q-52 24 -52 88q0 47 24 97t48 93t24 74q0 25 -18 43.5t-43 18.5q-17 0 -42 -13zM58 46q0 22 16 38t39 16t38.5 -16t15.5 -38q0 -23 -16 -39t-38 -16q-23 0 -39 16.5t-16 38.5z" />
    <glyph glyph-name="at" unicode="@" horiz-adv-x="1015" 
d="M692 494l-61 -386q-4 -19 -0.5 -28.5t17.5 -9.5q15 0 38 13.5t48.5 39.5t43 76t17.5 112q0 128 -73.5 203t-198.5 75q-144 0 -234 -99t-90 -257q0 -154 87 -247.5t230 -93.5q137 0 253 91h110q-58 -75 -157 -124t-204 -49q-172 0 -287.5 121t-115.5 302q0 57 13 115
t43.5 117.5t76 104.5t117 73.5t158.5 28.5q88 0 157.5 -30.5t112 -81.5t64.5 -114.5t22 -134.5q0 -79 -28.5 -144t-71 -102t-85.5 -57t-78 -20q-59 0 -76 58q-59 -58 -117 -58q-71 0 -115 58t-44 152q0 75 25.5 146t74.5 119t109 48q36 0 62 -16.5t53 -55.5l9 55h95z
M372 171q0 -50 17.5 -78t49.5 -28q28 0 55 27q26 26 43 100t17 144q0 91 -64 91q-54 0 -86 -76.5t-32 -179.5z" />
    <glyph glyph-name="A" unicode="A" horiz-adv-x="354" 
d="M7 0l126 672h89l125 -672h-83l-24 148h-124l-26 -148h-83zM129 228h96l-47 280h-2z" />
    <glyph glyph-name="B" unicode="B" horiz-adv-x="385" 
d="M59 0v668h102q77 0 126.5 -49t49.5 -116q0 -91 -87 -144q102 -48 102 -166q0 -80 -52 -136.5t-160 -56.5h-81zM145 80h15q50 0 78 29t28 81q0 48 -26 81.5t-80 33.5h-15v-225zM145 385h8q45 0 71.5 28t26.5 76q0 47 -25.5 73t-72.5 26h-8v-203z" />
    <glyph glyph-name="C" unicode="C" 
d="M314 119v-90q-49 -38 -102 -38q-86 0 -133 88t-47 251q0 155 45 251t137 96q43 0 92 -35v-87q-42 42 -86 42q-55 0 -76.5 -65t-21.5 -198q0 -137 23 -200t78 -63q37 0 91 48z" />
    <glyph glyph-name="D" unicode="D" horiz-adv-x="417" 
d="M55 0v668h95q229 0 229 -333q0 -99 -20 -169t-54 -104t-68.5 -48t-74.5 -14h-107zM141 80h13q75 0 107 58t32 193q0 142 -30.5 199.5t-106.5 57.5h-15v-508z" />
    <glyph glyph-name="E" unicode="E" horiz-adv-x="364" 
d="M58 0v668h238v-80h-152v-200h139v-80h-139v-228h160v-80h-246z" />
    <glyph glyph-name="F" unicode="F" horiz-adv-x="325" 
d="M58 0v668h208v-80h-122v-199h114v-80h-114v-309h-86z" />
    <glyph glyph-name="G" unicode="G" horiz-adv-x="417" 
d="M372 359v-328q-61 -40 -118 -40q-101 0 -160.5 89.5t-59.5 252.5q0 158 56.5 251t153.5 93q57 0 128 -48v-92q-41 36 -68 50.5t-56 14.5q-128 0 -128 -269q0 -262 136 -262q10 0 30 3v205h-59v80h145z" />
    <glyph glyph-name="H" unicode="H" horiz-adv-x="417" 
d="M59 0v668h86v-294h127v294h86v-668h-86v294h-127v-294h-86z" />
    <glyph glyph-name="I" unicode="I" horiz-adv-x="198" 
d="M56 0v668h86v-668h-86z" />
    <glyph glyph-name="J" unicode="J" horiz-adv-x="208" 
d="M-24 -198l-9 78q62 -5 79 8.5t17 74.5v705h86v-691q0 -95 -40 -143t-133 -32z" />
    <glyph glyph-name="K" unicode="K" horiz-adv-x="354" 
d="M60 0v668h86v-668h-86zM268 0l-119 339l94 329h88l-105 -318l131 -350h-89z" />
    <glyph glyph-name="L" unicode="L" horiz-adv-x="313" 
d="M59 0v668h86v-588h165v-80h-251z" />
    <glyph glyph-name="M" unicode="M" horiz-adv-x="458" 
d="M229 423l99 245h74v-668h-84l5 483l-2 2l-84 -220h-16l-84 220l-2 -2l5 -483h-84v668h74z" />
    <glyph glyph-name="N" unicode="N" horiz-adv-x="417" 
d="M59 0v668h70l148 -412h2v412h79v-668h-70l-148 416h-2v-416h-79z" />
    <glyph glyph-name="O" unicode="O" horiz-adv-x="427" 
d="M35 334q0 64 10 122.5t30 109.5t56 81t83 30q85 0 132 -98.5t47 -244.5q0 -166 -52 -254.5t-127 -88.5q-78 0 -128.5 90.5t-50.5 252.5zM125 334q0 -126 23.5 -194.5t66.5 -68.5q41 0 64.5 69.5t23.5 193.5q0 126 -23.5 194.5t-66.5 68.5q-25 0 -43 -23.5t-27.5 -63.5
t-13.5 -83.5t-4 -92.5z" />
    <glyph glyph-name="P" unicode="P" horiz-adv-x="375" 
d="M62 0v668h91q90 0 145.5 -48.5t55.5 -136.5q0 -89 -50 -139.5t-138 -50.5h-18v-293h-86zM148 373h15q105 0 105 115q0 103 -120 100v-215z" />
    <glyph glyph-name="Q" unicode="Q" horiz-adv-x="427" 
d="M407 -47l-56 -86q-52 7 -91 37.5t-83 92.5q-68 26 -105 113.5t-37 223.5q0 91 18 166t59.5 126t102.5 51q78 0 128 -92.5t50 -250.5q0 -251 -119 -325q48 -62 83 -62q18 0 35 16zM125 334q0 -126 23.5 -194.5t66.5 -68.5t65.5 71t22.5 192q0 126 -23.5 194.5t-66.5 68.5
q-25 0 -43.5 -24t-27.5 -65t-13 -83.5t-4 -90.5z" />
    <glyph glyph-name="R" unicode="R" horiz-adv-x="365" 
d="M59 0v668h72q49 0 85 -16.5t55 -45t27.5 -59t8.5 -64.5q0 -95 -69 -143q53 -39 91 -203l31 -137h-90l-26 115q-24 106 -44 147t-55 37v-299h-86zM145 379h4q72 0 72 101q0 107 -76 108v-209z" />
    <glyph glyph-name="S" unicode="S" horiz-adv-x="281" 
d="M32 17v89q39 -37 75 -37q27 0 46 19t19 46q0 34 -22.5 85.5t-49.5 97t-49.5 103.5t-22.5 104q0 68 38 110.5t98 42.5q33 0 72 -18v-81q-36 21 -60 21q-65 0 -65 -64q0 -35 22.5 -86t49.5 -96t49.5 -103t22.5 -105q0 -68 -38.5 -111t-99.5 -43q-43 0 -85 26z" />
    <glyph glyph-name="T" unicode="T" horiz-adv-x="313" 
d="M113 0v588h-103v80h292v-80h-103v-588h-86z" />
    <glyph glyph-name="U" unicode="U" horiz-adv-x="406" 
d="M54 668h86v-502q0 -44 16 -69.5t47 -25.5q27 0 45 23t18 68v506h86v-496q0 -51 -15 -88.5t-39.5 -56.5t-48 -27.5t-46.5 -8.5q-64 0 -106.5 48t-42.5 126v503z" />
    <glyph glyph-name="V" unicode="V" horiz-adv-x="323" 
d="M132 -9l-123 677h90l61 -450h2l62 450h90l-123 -677h-59z" />
    <glyph glyph-name="W" unicode="W" horiz-adv-x="604" 
d="M153 -9l-143 677h90l79 -449h2l90 449h62l85 -459h2l84 459h90l-143 -677h-59l-90 447h-2l-88 -447h-59z" />
    <glyph glyph-name="X" unicode="X" horiz-adv-x="354" 
d="M8 0l117 355l-101 313h92l59 -221h2l60 221h92l-101 -313l118 -355h-92l-77 248h-2l-75 -248h-92z" />
    <glyph glyph-name="Y" unicode="Y" horiz-adv-x="313" 
d="M112 0v305l-105 363h88l58 -262h2l61 262h89l-107 -363v-305h-86z" />
    <glyph glyph-name="Z" unicode="Z" horiz-adv-x="292" 
d="M16 0l154 588h-136v80h242l-154 -588h154v-80h-260z" />
    <glyph glyph-name="bracketleft" unicode="[" horiz-adv-x="260" 
d="M80 -236v904h173v-74h-95v-756h95v-74h-173z" />
    <glyph glyph-name="backslash" unicode="\" horiz-adv-x="281" 
d="M271 -9h-71l-190 677h71z" />
    <glyph glyph-name="bracketright" unicode="]" horiz-adv-x="260" 
d="M180 -236h-173v74h95v756h-95v74h173v-904z" />
    <glyph glyph-name="asciicircum" unicode="^" horiz-adv-x="469" 
d="M117 337h-91l173 391h71l172 -391h-90l-118 292z" />
    <glyph glyph-name="underscore" unicode="_" horiz-adv-x="500" 
d="M-6 -75h512v-50h-512v50z" />
    <glyph glyph-name="grave" unicode="`" 
d="M200 515h-45l-71 146h95z" />
    <glyph glyph-name="a" unicode="a" 
d="M322 82v-59q-37 -33 -61 -33q-43 0 -57 56q-43 -58 -85 -58q-35 0 -61 33.5t-26 78.5q0 52 35.5 87.5t133.5 93.5v42q0 58 -46 58q-47 0 -112 -73v90q34 32 60 44.5t58 12.5q47 0 82.5 -31t35.5 -88v-250q0 -26 12 -26q7 0 31 22zM201 113v114q-92 -56 -92 -115
q0 -22 10.5 -36t27.5 -14q32 0 54 51z" />
    <glyph glyph-name="b" unicode="b" horiz-adv-x="354" 
d="M46 0v668h78v-248h2q21 35 68 35q49 0 87.5 -54.5t38.5 -174.5q0 -116 -37.5 -174.5t-90.5 -58.5q-39 0 -68 33v-26h-78zM124 340v-230q21 -43 53 -43q63 0 63 160q0 73 -18 113.5t-50 40.5q-29 0 -48 -41z" />
    <glyph glyph-name="c" unicode="c" horiz-adv-x="281" 
d="M271 87v-75q-38 -24 -77 -24q-69 0 -114 65t-45 165q0 104 44.5 170.5t114.5 66.5q32 0 70 -16v-80q-36 22 -58 22q-42 0 -66.5 -43.5t-24.5 -117.5q0 -72 26.5 -115t72.5 -43q25 0 57 25z" />
    <glyph glyph-name="d" unicode="d" horiz-adv-x="354" 
d="M308 0h-78v34h-2q-28 -41 -71 -41q-51 0 -88 60.5t-37 166.5q0 104 36 169.5t93 65.5q39 0 69 -36v249h78v-668zM230 113v224q-16 44 -51 44q-32 0 -49.5 -43t-17.5 -120q0 -147 63 -147q35 0 55 42z" />
    <glyph glyph-name="e" unicode="e" horiz-adv-x="313" 
d="M267 104v-77q-42 -39 -91 -39q-67 0 -104.5 60t-37.5 174q0 110 32.5 171.5t90.5 61.5q57 0 93 -66q27 -50 26 -185h-164q0 -144 79 -144q43 0 76 44zM111 262h87q0 125 -45 125q-42 0 -42 -125z" />
    <glyph glyph-name="f" unicode="f" horiz-adv-x="188" 
d="M57 0v375h-35v68h35v70q0 74 36.5 119.5t119.5 44.5v-65q-41 0 -59.5 -24.5t-18.5 -78.5v-66h43v-68h-43v-375h-78z" />
    <glyph glyph-name="g" unicode="g" 
d="M322 375h-59q25 -41 25 -108q0 -83 -46 -129q-18 -18 -41 -26t-39 -9t-27.5 -8t-11.5 -24q0 -19 17 -28.5t40.5 -12t55 -14t53.5 -33.5q32 -32 32 -91q0 -61 -43 -99t-111 -38q-63 0 -105 35t-42 88q0 77 76 109q-50 23 -50 65q0 47 62 71q-68 47 -68 152q0 74 34 121
t97 47h151v-68zM111 275q0 -52 14.5 -81.5t39.5 -29.5q24 0 38 28.5t14 77.5q0 53 -14 83.5t-38 30.5q-25 0 -39.5 -29.5t-14.5 -79.5zM91 -112q0 -30 21.5 -48.5t56.5 -18.5q34 0 57.5 19t23.5 48t-25 49.5t-60 20.5q-33 0 -53.5 -19.5t-20.5 -50.5z" />
    <glyph glyph-name="h" unicode="h" horiz-adv-x="354" 
d="M51 0v668h78v-269h2q33 56 82 56q38 0 67.5 -30.5t29.5 -94.5v-330h-78v321q0 64 -41 64q-34 0 -62 -52v-333h-78z" />
    <glyph glyph-name="i" unicode="i" horiz-adv-x="177" 
d="M50 0v443h78v-443h-78zM44 632q0 19 13 32t32 13t32 -13t13 -32t-13 -32t-32 -13t-32 13t-13 32z" />
    <glyph glyph-name="j" unicode="j" horiz-adv-x="167" 
d="M-5 -239v75q28 5 38.5 26t10.5 73v508h78v-475q0 -87 -11 -119q-27 -79 -116 -88zM35 632q0 19 13 32t32 13t32 -13t13 -32t-13 -32t-32 -13t-32 13t-13 32z" />
    <glyph glyph-name="k" unicode="k" horiz-adv-x="344" 
d="M48 0v668h78v-668h-78zM255 0l-121 228l111 215h82l-118 -210l133 -233h-87z" />
    <glyph glyph-name="l" unicode="l" horiz-adv-x="167" 
d="M44 0v668h78v-668h-78z" />
    <glyph glyph-name="m" unicode="m" horiz-adv-x="531" 
d="M490 0h-78v315q0 66 -42 66q-19 0 -32 -11.5t-30 -40.5v-329h-78v314q0 67 -43 67q-17 0 -30 -12t-31 -41v-328h-78v443h78v-48h2q33 55 82 55q56 0 91 -66q27 39 45.5 52.5t45.5 13.5q41 0 69.5 -32.5t28.5 -97.5v-320z" />
    <glyph glyph-name="n" unicode="n" horiz-adv-x="354" 
d="M49 0v443h78v-48h2q34 55 82 55q43 0 70 -34t27 -97v-319h-78v317q0 64 -42 64q-34 0 -61 -53v-328h-78z" />
    <glyph glyph-name="o" unicode="o" horiz-adv-x="344" 
d="M33 221q0 109 37 171.5t102 62.5t102 -62.5t37 -171.5q0 -108 -37.5 -170.5t-101.5 -62.5t-101.5 62.5t-37.5 170.5zM113 221q0 -159 60 -159q58 0 58 159q0 160 -60 160q-58 0 -58 -160z" />
    <glyph glyph-name="p" unicode="p" horiz-adv-x="354" 
d="M49 -239v682h78v-32h2q25 39 67 39q55 0 91 -67t36 -168q0 -100 -35.5 -163.5t-91.5 -63.5q-38 0 -67 39h-2v-266h-78zM127 337v-235q27 -40 54 -40q16 0 28.5 11.5t23 48t10.5 94.5q0 160 -69 160q-31 0 -47 -39z" />
    <glyph glyph-name="q" unicode="q" horiz-adv-x="354" 
d="M230 -239v265h-2q-24 -38 -68 -38q-55 0 -91.5 62.5t-36.5 169.5t35 168.5t92 61.5q44 0 69 -40h2v33h78v-682h-78zM230 106v225q-20 45 -54 45q-64 0 -64 -160q0 -73 18.5 -113.5t50.5 -40.5q31 0 49 44z" />
    <glyph glyph-name="r" unicode="r" horiz-adv-x="250" 
d="M51 0v443h78v-120h2q23 79 38.5 103t43.5 24q21 0 40 -13l-6 -80q-17 11 -34 11q-21 0 -38 -22.5t-26.5 -55t-14.5 -62.5t-5 -52v-176h-78z" />
    <glyph glyph-name="s" unicode="s" horiz-adv-x="250" 
d="M28 24v86q44 -48 77 -48q17 0 28 11t11 27q0 27 -27.5 69t-55.5 90.5t-28 91.5q0 45 27 74.5t69 29.5q37 0 74 -28v-74q-38 31 -67 31q-14 0 -22.5 -9t-8.5 -24q0 -21 18 -51t40 -57.5t40 -66t18 -74.5q0 -49 -30 -81.5t-76 -32.5q-42 0 -87 36z" />
    <glyph glyph-name="t" unicode="t" horiz-adv-x="229" 
d="M218 74v-69q-41 -17 -69 -17q-82 0 -82 99v288h-51v7q55 68 122 175h7v-114h73v-68h-73v-253q0 -33 6.5 -46.5t24.5 -13.5q15 0 42 12z" />
    <glyph glyph-name="u" unicode="u" horiz-adv-x="354" 
d="M302 443v-443h-78v48h-2q-18 -31 -35.5 -43t-43.5 -12q-43 0 -71.5 32.5t-28.5 94.5v323h78v-317q0 -63 42 -63q40 0 61 52v328h78z" />
    <glyph glyph-name="v" unicode="v" horiz-adv-x="302" 
d="M140 -10l-133 453h78l65 -253h2l65 253h78l-133 -453h-22z" />
    <glyph glyph-name="w" unicode="w" horiz-adv-x="448" 
d="M126 -10l-120 453h79l56 -238h2l66 238h30l66 -238h2l56 238h79l-120 -453h-22l-75 266h-2l-75 -266h-22z" />
    <glyph glyph-name="x" unicode="x" horiz-adv-x="323" 
d="M15 0l102 226l-102 217h82l61 -141l58 141h80l-96 -217l107 -226h-82l-67 153l-61 -153h-82z" />
    <glyph glyph-name="y" unicode="y" horiz-adv-x="313" 
d="M35 -244l90 322l-117 365h81l72 -231h2l64 231h78l-192 -687h-78z" />
    <glyph glyph-name="z" unicode="z" horiz-adv-x="281" 
d="M14 0l138 375h-125v68h233l-140 -375h143v-68h-249z" />
    <glyph glyph-name="braceleft" unicode="{" horiz-adv-x="334" 
d="M29 176v80q57 2 79 37.5t22 122.5v75q0 108 34.5 151t114.5 43h33v-74h-15q-52 0 -68 -20t-16 -83v-71q0 -100 -22.5 -148.5t-80.5 -72.5q58 -24 80.5 -72.5t22.5 -148.5v-71q0 -63 16 -83t68 -20h15v-74h-33q-80 0 -114.5 43t-34.5 151v75q0 87 -22 122.5t-79 37.5z" />
    <glyph glyph-name="bar" unicode="|" horiz-adv-x="527" 
d="M225 -250v1000h78v-1000h-78z" />
    <glyph glyph-name="braceright" unicode="}" horiz-adv-x="334" 
d="M306 256v-80q-57 -2 -79 -37.5t-22 -122.5v-75q0 -108 -34.5 -151t-114.5 -43h-33v74h14q52 0 68.5 20t16.5 83v71q0 100 22.5 148.5t80.5 72.5q-58 24 -80.5 72.5t-22.5 148.5v71q0 63 -16 83t-68 20h-15v74h33q80 0 114.5 -43t34.5 -151v-75q0 -87 22 -122.5t79 -37.5z
" />
    <glyph glyph-name="asciitilde" unicode="~" horiz-adv-x="656" 
d="M592 413v-71q-74 -62 -138 -62q-49 0 -133 40q-80 39 -114 39q-63 0 -143 -67v70q77 61 143 61q49 0 129 -39q80 -40 115 -40q62 0 141 69z" />
    <glyph glyph-name="uni00A0" unicode="&#xa0;" 
 />
    <glyph glyph-name="exclamdown" unicode="&#xa1;" horiz-adv-x="177" 
d="M88 346q-22 0 -38 16t-16 38q0 23 16 39t38 16t38.5 -16.5t16.5 -38.5t-16 -38t-39 -16zM88 -228q-51 0 -51 121q0 93 18 227.5t33 134.5t33 -134.5t18 -227.5q0 -121 -51 -121z" />
    <glyph glyph-name="cent" unicode="&#xa2;" horiz-adv-x="281" 
d="M159 -108v100q-58 16 -92.5 77.5t-34.5 148.5q0 91 34.5 154t92.5 79v77h57v-75q27 -6 45 -14v-80q-35 21 -58 21q-43 0 -67 -43t-24 -117q0 -71 26.5 -113t71.5 -42q29 0 58 22v-75q-25 -17 -52 -21v-99h-57z" />
    <glyph glyph-name="sterling" unicode="&#xa3;" horiz-adv-x="365" 
d="M63 -11l36 300h-42v78h52q10 70 20.5 116t26.5 85.5t37.5 61.5t52.5 34.5t74 12.5l23 -77q-31 2 -52.5 -5t-36 -21t-25.5 -46t-18 -66.5t-16 -94.5h57v-78h-70l-23 -208q7 1 16 1q27 0 61 -9t49 -9q27 0 63 15v-77q-35 -14 -70 -14q-22 0 -69 11.5t-68 11.5
q-37 0 -72 -22h-6z" />
    <glyph glyph-name="currency" unicode="&#xa4;" horiz-adv-x="667" 
d="M334 544q72 0 132 -43l62 62l45 -45l-63 -63q44 -54 44 -131q0 -79 -44 -131l63 -63l-45 -45l-63 63q-53 -44 -131 -44q-76 0 -131 44l-63 -63l-45 45l63 63q-44 52 -44 131q0 78 43 132l-62 62l45 45l62 -62q62 43 132 43zM334 483q-66 0 -112.5 -46.5t-46.5 -112.5
t46.5 -112.5t112.5 -46.5t112.5 46.5t46.5 112.5t-46.5 112.5t-112.5 46.5z" />
    <glyph glyph-name="yen" unicode="&#xa5;" horiz-adv-x="313" 
d="M200 273v-69h122v-58h-122v-146h-86v146h-123v58h123v69h-123v58h115l-98 337h89l60 -262h2l59 262h88l-98 -337h114v-58h-122z" />
    <glyph glyph-name="brokenbar" unicode="&#xa6;" horiz-adv-x="527" 
d="M225 -175v350h78v-350h-78zM225 325v350h78v-350h-78z" />
    <glyph glyph-name="section" unicode="&#xa7;" horiz-adv-x="344" 
d="M135 -146q0 -4 -2 -12.5t-2 -11.5q0 -15 25 -15q26 0 45.5 25.5t19.5 58.5q0 37 -20 74.5t-48 69.5t-56 64.5t-48 71.5t-20 78q0 79 55 136q-36 64 -36 118q0 68 41.5 116t99.5 48q46 0 78.5 -26.5t32.5 -63.5q0 -23 -14.5 -38t-36.5 -15q-19 0 -31 12t-12 30q0 5 2.5 15
t2.5 13q0 13 -22 13q-28 0 -48 -25t-20 -61q0 -37 20 -74.5t48 -69.5l56 -64t48 -70t20 -75q0 -74 -55 -139q35 -64 35 -117q0 -68 -42 -116.5t-101 -48.5q-45 0 -77 26.5t-32 64.5q0 22 14 36.5t34 14.5t33 -12t13 -31zM98 273q0 -22 11.5 -44.5t25 -39t41 -46.5t43.5 -50
q24 35 24 65q0 21 -10.5 42t-24 36.5t-41 46t-46.5 54.5q-23 -32 -23 -64z" />
    <glyph glyph-name="dieresis" unicode="&#xa8;" 
d="M228 634q19 0 32 -13t13 -32t-13 -32.5t-32 -13.5t-32.5 13.5t-13.5 32.5t13.5 32t32.5 13zM107 634q19 0 32 -13t13 -32t-13 -32.5t-32 -13.5t-32.5 13.5t-13.5 32.5t13.5 32t32.5 13z" />
    <glyph glyph-name="copyright" unicode="&#xa9;" horiz-adv-x="738" 
d="M487 300l60 -18q-15 -62 -62.5 -98t-115.5 -36q-88 0 -140.5 57t-52.5 153q0 97 52.5 152.5t144.5 55.5q64 0 107.5 -30t59.5 -85l-58 -14q-30 75 -111 75q-59 0 -94 -42.5t-35 -112.5t33 -110.5t91 -40.5q45 0 77.5 25t43.5 69zM369 728q153 0 260.5 -107.5
t107.5 -260.5t-107.5 -261t-260.5 -108t-261 108t-108 261t108 260.5t261 107.5zM369 667q-127 0 -217 -89.5t-90 -217.5t90 -218t217 -90t217.5 90t90.5 218q0 127 -90 217t-218 90z" />
    <glyph glyph-name="ordfeminine" unicode="&#xaa;" horiz-adv-x="208" 
d="M209 464v-52q-27 -23 -44 -23q-25 0 -39 27q-28 -28 -52 -28q-25 0 -43.5 21.5t-18.5 51.5q0 32 23 56t85 55v20q0 28 -23 28q-29 0 -78 -52v72q44 37 81 37q36 0 59 -21t23 -57v-144q0 -21 18 -3q4 5 9 12zM120 469v56q-47 -31 -47 -57q0 -24 19 -24q14 0 28 25z" />
    <glyph glyph-name="guillemotleft" unicode="&#xab;" horiz-adv-x="365" 
d="M256 221l76 -233h-69l-78 233l78 233h69zM102 221l76 -233h-69l-78 233l78 233h69z" />
    <glyph glyph-name="logicalnot" unicode="&#xac;" horiz-adv-x="667" 
d="M570 204h-83v216h-390v83h473v-299z" />
    <glyph glyph-name="uni00AD" unicode="&#xad;" horiz-adv-x="240" 
d="M29 266h181v-84h-181v84z" />
    <glyph glyph-name="registered" unicode="&#xae;" horiz-adv-x="738" 
d="M207 156v396h168q72 0 105 -32t33 -76t-32 -75.5t-81 -34.5v-2q36 -10 92 -99l48 -77h-78l-35 62q-37 67 -59 86.5t-59 19.5h-38v-168h-64zM271 379h96q39 0 58.5 16.5t19.5 43.5q0 24 -17.5 41.5t-59.5 17.5h-97v-119zM369 728q153 0 260.5 -107.5t107.5 -260.5
t-107.5 -261t-260.5 -108t-261 108t-108 261t108 260.5t261 107.5zM369 667q-127 0 -217 -89.5t-90 -217.5t90 -218t217 -90t217.5 90t90.5 218q0 127 -90 217t-218 90z" />
    <glyph glyph-name="macron" unicode="&#xaf;" 
d="M71 557v65h191v-65h-191z" />
    <glyph glyph-name="degree" unicode="&#xb0;" horiz-adv-x="400" 
d="M200 728q56 0 95.5 -39.5t39.5 -95.5t-39.5 -96t-95.5 -40t-96 40t-40 96t40 95.5t96 39.5zM200 675q-34 0 -58 -23.5t-24 -58.5t24 -59t58 -24t58.5 24t24.5 59q0 34 -24 58t-59 24z" />
    <glyph glyph-name="plusminus" unicode="&#xb1;" horiz-adv-x="667" 
d="M570 -1h-473v83h473v-83zM570 322h-195v-195h-83v195h-195v83h195v195h83v-195h195v-83z" />
    <glyph glyph-name="two.superior" unicode="&#xb2;" horiz-adv-x="219" 
d="M5 328v15q103 140 103 225q0 23 -12 36t-33 13q-15 0 -50 -14v58q38 14 63 14q44 0 70 -27t26 -73q0 -36 -16 -75.5t-61 -116.5h86v-55h-176z" />
    <glyph glyph-name="three.superior" unicode="&#xb3;" horiz-adv-x="219" 
d="M16 333v57q31 -13 49 -13q22 0 34 14t12 38q0 49 -51 53v55q47 4 47 42q0 19 -11 30.5t-30 11.5q-15 0 -41 -13v57q29 10 51 10q40 0 67 -25.5t27 -63.5q0 -47 -48 -74q54 -28 54 -87q0 -43 -30 -73.5t-73 -30.5q-24 0 -57 12z" />
    <glyph glyph-name="acute" unicode="&#xb4;" 
d="M133 515l21 146h95l-71 -146h-45z" />
    <glyph glyph-name="mu" unicode="&#xb5;" horiz-adv-x="556" 
d="M407 443v-443h-78v40h-2q-8 -48 -49 -48q-13 0 -29.5 11.5t-19.5 35.5h-2v-205h-78v609h78v-294q0 -71 51 -71t51 71v294h78z" />
    <glyph glyph-name="paragraph" unicode="&#xb6;" horiz-adv-x="538" 
d="M195 -199v510q-91 5 -144 58.5t-53 141.5q0 91 58 148t153 57h329v-85h-70v-830h-83v830h-107v-830h-83z" />
    <glyph glyph-name="periodcentered" unicode="&#xb7;" horiz-adv-x="177" 
d="M89 387q23 0 38.5 -15.5t15.5 -38.5t-16 -39t-38 -16q-23 0 -39 16t-16 39q0 22 16 38t39 16z" />
    <glyph glyph-name="cedilla" unicode="&#xb8;" 
d="M82 -244v55q107 0 107 58q0 41 -57 46l38 89h67l-24 -56q56 -14 56 -74q0 -55 -47.5 -86.5t-139.5 -31.5z" />
    <glyph glyph-name="one.superior" unicode="&#xb9;" horiz-adv-x="219" 
d="M78 328v344h63v-344h-63z" />
    <glyph glyph-name="ordmasculine" unicode="&#xba;" horiz-adv-x="219" 
d="M14 530q0 68 26 107.5t70 39.5q43 0 68.5 -39t25.5 -107q0 -65 -26 -104t-69 -39t-69 39t-26 103zM77 533q0 -87 32 -87t32 87q0 85 -31 85q-33 0 -33 -85z" />
    <glyph glyph-name="guillemotright" unicode="&#xbb;" horiz-adv-x="365" 
d="M263 221l-76 233h69l78 -233l-78 -233h-69zM109 221l-76 233h69l78 -233l-78 -233h-69z" />
    <glyph glyph-name="onequarter" unicode="&#xbc;" horiz-adv-x="604" 
d="M473 0v91h-102v46l108 211h57v-214h21v-43h-21v-91h-63zM473 134v101h-2l-50 -101h52zM102 328v344h63v-344h-63zM98 -30l343 707h61l-341 -707h-63z" />
    <glyph glyph-name="onehalf" unicode="&#xbd;" horiz-adv-x="604" 
d="M106 328v344h63v-344h-63zM74 -30l343 707h61l-341 -707h-63zM363 0v15q103 140 103 225q0 23 -12 36t-33 13q-15 0 -50 -14v58q38 14 63 14q44 0 70 -27t26 -73q0 -36 -16 -75.5t-61 -116.5h86v-55h-176z" />
    <glyph glyph-name="threequarters" unicode="&#xbe;" horiz-adv-x="604" 
d="M473 0v91h-103v46l109 211h57v-214h21v-43h-21v-91h-63zM473 134v101h-2l-50 -101h52zM44 333v57q31 -13 49 -13q22 0 34 14t12 38q0 49 -51 53v55q47 4 47 42q0 19 -11 30.5t-30 11.5q-15 0 -41 -13v57q29 10 51 10q40 0 67 -25.5t27 -63.5q0 -47 -48 -74q54 -28 54 -87
q0 -43 -30 -73.5t-73 -30.5q-24 0 -57 12zM98 -30l343 707h61l-341 -707h-63z" />
    <glyph glyph-name="questiondown" unicode="&#xbf;" horiz-adv-x="250" 
d="M218 -132l-62 -96q-64 4 -102 43t-38 100q0 41 21.5 88.5t47.5 85t47 88.5t20 98q52 -24 52 -88q0 -47 -24 -97t-48 -93t-24 -74q0 -25 18 -43.5t43 -18.5q17 0 42 13zM137 346q-23 0 -38.5 16t-15.5 38q0 23 16 39t38 16q23 0 39 -16.5t16 -38.5t-16 -38t-39 -16z" />
    <glyph glyph-name="Agrave" unicode="&#xc0;" horiz-adv-x="354" 
d="M7 0l126 672h89l125 -672h-83l-24 148h-124l-26 -148h-83zM129 228h96l-47 280h-2zM211 715h-45l-71 146h95z" />
    <glyph glyph-name="Aacute" unicode="&#xc1;" horiz-adv-x="354" 
d="M7 0l126 672h89l125 -672h-83l-24 148h-124l-26 -148h-83zM129 228h96l-47 280h-2zM144 715l21 146h95l-71 -146h-45z" />
    <glyph glyph-name="Acircumflex" unicode="&#xc2;" horiz-adv-x="354" 
d="M7 0l126 672h89l125 -672h-83l-24 148h-124l-26 -148h-83zM129 228h96l-47 280h-2zM74 713l55 150h97l55 -150h-45l-58 97l-59 -97h-45z" />
    <glyph glyph-name="Atilde" unicode="&#xc3;" horiz-adv-x="354" 
d="M7 0l126 672h89l125 -672h-83l-24 148h-124l-26 -148h-83zM129 228h96l-47 280h-2zM36 735q-5 48 15.5 77.5t63.5 29.5q25 0 68 -13.5t58 -13.5q25 0 35 27h43q7 -49 -16.5 -78t-60.5 -29q-21 0 -61.5 14.5t-54.5 14.5q-33 0 -45 -29h-45z" />
    <glyph glyph-name="Adieresis" unicode="&#xc4;" horiz-adv-x="354" 
d="M7 0l126 672h89l125 -672h-83l-24 148h-124l-26 -148h-83zM129 228h96l-47 280h-2zM239 834q19 0 32 -13t13 -32t-13 -32.5t-32 -13.5t-32.5 13.5t-13.5 32.5t13.5 32t32.5 13zM118 834q19 0 32 -13t13 -32t-13 -32.5t-32 -13.5t-32.5 13.5t-13.5 32.5t13.5 32t32.5 13z
" />
    <glyph glyph-name="Aring" unicode="&#xc5;" horiz-adv-x="354" 
d="M7 0l126 672h89l125 -672h-83l-24 148h-124l-26 -148h-83zM129 228h96l-47 280h-2zM178 868q32 0 54.5 -22.5t22.5 -54.5t-22.5 -55t-54.5 -23t-55 23t-23 55t23 54.5t55 22.5zM178 839q-20 0 -34 -14t-14 -34t14 -34t34 -14t34 14t14 34t-14 34t-34 14z" />
    <glyph glyph-name="AE" unicode="&#xc6;" horiz-adv-x="500" 
d="M6 0l141 668h322v-80h-151v-198h140v-80h-140v-230h160v-80h-246v264h-93l-56 -264h-77zM154 344h78v285h-20z" />
    <glyph glyph-name="Ccedilla" unicode="&#xc7;" 
d="M122 -85l37 86q-62 25 -94.5 109.5t-32.5 219.5q0 155 45 251t137 96q43 0 92 -35v-87q-42 42 -86 42q-55 0 -76.5 -65t-21.5 -198q0 -137 23 -200t78 -63q37 0 91 48v-90q-48 -36 -92 -37l-19 -44q56 -14 56 -74q0 -55 -47.5 -86.5t-139.5 -31.5v55q107 0 107 58
q0 41 -57 46z" />
    <glyph glyph-name="Egrave" unicode="&#xc8;" horiz-adv-x="364" 
d="M58 0v668h238v-80h-152v-200h139v-80h-139v-228h160v-80h-246zM216 715h-45l-71 146h95z" />
    <glyph glyph-name="Eacute" unicode="&#xc9;" horiz-adv-x="364" 
d="M58 0v668h238v-80h-152v-200h139v-80h-139v-228h160v-80h-246zM149 715l21 146h95l-71 -146h-45z" />
    <glyph glyph-name="Ecircumflex" unicode="&#xca;" horiz-adv-x="364" 
d="M58 0v668h238v-80h-152v-200h139v-80h-139v-228h160v-80h-246zM79 713l55 150h97l55 -150h-45l-58 97l-59 -97h-45z" />
    <glyph glyph-name="Edieresis" unicode="&#xcb;" horiz-adv-x="364" 
d="M58 0v668h238v-80h-152v-200h139v-80h-139v-228h160v-80h-246zM244 834q19 0 32 -13t13 -32t-13 -32.5t-32 -13.5t-32.5 13.5t-13.5 32.5t13.5 32t32.5 13zM123 834q19 0 32 -13t13 -32t-13 -32.5t-32 -13.5t-32.5 13.5t-13.5 32.5t13.5 32t32.5 13z" />
    <glyph glyph-name="Igrave" unicode="&#xcc;" horiz-adv-x="198" 
d="M56 0v668h86v-668h-86zM133 715h-45l-71 146h95z" />
    <glyph glyph-name="Iacute" unicode="&#xcd;" horiz-adv-x="198" 
d="M56 0v668h86v-668h-86zM66 715l21 146h95l-71 -146h-45z" />
    <glyph glyph-name="Icircumflex" unicode="&#xce;" horiz-adv-x="198" 
d="M56 0v668h86v-668h-86zM-4 713l55 150h97l55 -150h-45l-58 97l-59 -97h-45z" />
    <glyph glyph-name="Idieresis" unicode="&#xcf;" horiz-adv-x="198" 
d="M56 0v668h86v-668h-86zM161 834q19 0 32 -13t13 -32t-13 -32.5t-32 -13.5t-32.5 13.5t-13.5 32.5t13.5 32t32.5 13zM40 834q19 0 32 -13t13 -32t-13 -32.5t-32 -13.5t-32.5 13.5t-13.5 32.5t13.5 32t32.5 13z" />
    <glyph glyph-name="Eth" unicode="&#xd0;" horiz-adv-x="417" 
d="M55 0v305h-55v60h55v303h95q229 0 229 -333q0 -99 -20 -169t-54 -104t-68.5 -48t-74.5 -14h-107zM141 80h13q75 0 107 58t32 193q0 142 -30.5 199.5t-106.5 57.5h-15v-223h83v-60h-83v-225z" />
    <glyph glyph-name="Ntilde" unicode="&#xd1;" horiz-adv-x="417" 
d="M59 0v668h70l148 -412h2v412h79v-668h-70l-148 416h-2v-416h-79zM67 735q-5 48 15.5 77.5t63.5 29.5q25 0 68 -13.5t58 -13.5q25 0 35 27h43q7 -49 -16.5 -78t-60.5 -29q-21 0 -61.5 14.5t-54.5 14.5q-33 0 -45 -29h-45z" />
    <glyph glyph-name="Ograve" unicode="&#xd2;" horiz-adv-x="427" 
d="M35 334q0 64 10 122.5t30 109.5t56 81t83 30q85 0 132 -98.5t47 -244.5q0 -166 -52 -254.5t-127 -88.5q-78 0 -128.5 90.5t-50.5 252.5zM125 334q0 -126 23.5 -194.5t66.5 -68.5q41 0 64.5 69.5t23.5 193.5q0 126 -23.5 194.5t-66.5 68.5q-25 0 -43 -23.5t-27.5 -63.5
t-13.5 -83.5t-4 -92.5zM247 715h-45l-71 146h95z" />
    <glyph glyph-name="Oacute" unicode="&#xd3;" horiz-adv-x="427" 
d="M35 334q0 64 10 122.5t30 109.5t56 81t83 30q85 0 132 -98.5t47 -244.5q0 -166 -52 -254.5t-127 -88.5q-78 0 -128.5 90.5t-50.5 252.5zM125 334q0 -126 23.5 -194.5t66.5 -68.5q41 0 64.5 69.5t23.5 193.5q0 126 -23.5 194.5t-66.5 68.5q-25 0 -43 -23.5t-27.5 -63.5
t-13.5 -83.5t-4 -92.5zM180 715l21 146h95l-71 -146h-45z" />
    <glyph glyph-name="Ocircumflex" unicode="&#xd4;" horiz-adv-x="427" 
d="M35 334q0 64 10 122.5t30 109.5t56 81t83 30q85 0 132 -98.5t47 -244.5q0 -166 -52 -254.5t-127 -88.5q-78 0 -128.5 90.5t-50.5 252.5zM125 334q0 -126 23.5 -194.5t66.5 -68.5q41 0 64.5 69.5t23.5 193.5q0 126 -23.5 194.5t-66.5 68.5q-25 0 -43 -23.5t-27.5 -63.5
t-13.5 -83.5t-4 -92.5zM110 713l55 150h97l55 -150h-45l-58 97l-59 -97h-45z" />
    <glyph glyph-name="Otilde" unicode="&#xd5;" horiz-adv-x="427" 
d="M35 334q0 64 10 122.5t30 109.5t56 81t83 30q85 0 132 -98.5t47 -244.5q0 -166 -52 -254.5t-127 -88.5q-78 0 -128.5 90.5t-50.5 252.5zM125 334q0 -126 23.5 -194.5t66.5 -68.5q41 0 64.5 69.5t23.5 193.5q0 126 -23.5 194.5t-66.5 68.5q-25 0 -43 -23.5t-27.5 -63.5
t-13.5 -83.5t-4 -92.5zM72 735q-5 48 15.5 77.5t63.5 29.5q25 0 68 -13.5t58 -13.5q25 0 35 27h43q7 -49 -16.5 -78t-60.5 -29q-21 0 -61.5 14.5t-54.5 14.5q-33 0 -45 -29h-45z" />
    <glyph glyph-name="Odieresis" unicode="&#xd6;" horiz-adv-x="427" 
d="M35 334q0 64 10 122.5t30 109.5t56 81t83 30q85 0 132 -98.5t47 -244.5q0 -166 -52 -254.5t-127 -88.5q-78 0 -128.5 90.5t-50.5 252.5zM125 334q0 -126 23.5 -194.5t66.5 -68.5q41 0 64.5 69.5t23.5 193.5q0 126 -23.5 194.5t-66.5 68.5q-25 0 -43 -23.5t-27.5 -63.5
t-13.5 -83.5t-4 -92.5zM275 834q19 0 32 -13t13 -32t-13 -32.5t-32 -13.5t-32.5 13.5t-13.5 32.5t13.5 32t32.5 13zM154 834q19 0 32 -13t13 -32t-13 -32.5t-32 -13.5t-32.5 13.5t-13.5 32.5t13.5 32t32.5 13z" />
    <glyph glyph-name="multiply" unicode="&#xd7;" horiz-adv-x="668" 
d="M125 197l158 158l-158 158l51 51l158 -158l158 158l51 -51l-158 -158l158 -158l-51 -51l-158 158l-158 -158z" />
    <glyph glyph-name="Oslash" unicode="&#xd8;" horiz-adv-x="427" 
d="M130 233l151 289q-21 75 -68 75q-25 0 -43 -23.5t-27.5 -64t-13.5 -83.5t-4 -92q0 -34 1.5 -64.5t1.5 -36.5h2zM99 59l-35 -68l-48 26l53 101q-34 74 -34 216q0 64 10 122.5t30 109.5t56 81t83 30q66 0 113 -67l35 67l47 -25l-52 -100q36 -83 36 -218q0 -166 -52 -254.5
t-127 -88.5q-68 0 -115 68zM296 438l-150 -290q22 -77 69 -77q41 0 64.5 69.5t23.5 193.5q0 75 -5 104h-2z" />
    <glyph glyph-name="Ugrave" unicode="&#xd9;" horiz-adv-x="406" 
d="M54 668h86v-502q0 -44 16 -69.5t47 -25.5q27 0 45 23t18 68v506h86v-496q0 -51 -15 -88.5t-39.5 -56.5t-48 -27.5t-46.5 -8.5q-64 0 -106.5 48t-42.5 126v503zM237 715h-45l-71 146h95z" />
    <glyph glyph-name="Uacute" unicode="&#xda;" horiz-adv-x="406" 
d="M54 668h86v-502q0 -44 16 -69.5t47 -25.5q27 0 45 23t18 68v506h86v-496q0 -51 -15 -88.5t-39.5 -56.5t-48 -27.5t-46.5 -8.5q-64 0 -106.5 48t-42.5 126v503zM170 715l21 146h95l-71 -146h-45z" />
    <glyph glyph-name="Ucircumflex" unicode="&#xdb;" horiz-adv-x="406" 
d="M54 668h86v-502q0 -44 16 -69.5t47 -25.5q27 0 45 23t18 68v506h86v-496q0 -51 -15 -88.5t-39.5 -56.5t-48 -27.5t-46.5 -8.5q-64 0 -106.5 48t-42.5 126v503zM100 713l55 150h97l55 -150h-45l-58 97l-59 -97h-45z" />
    <glyph glyph-name="Udieresis" unicode="&#xdc;" horiz-adv-x="406" 
d="M54 668h86v-502q0 -44 16 -69.5t47 -25.5q27 0 45 23t18 68v506h86v-496q0 -51 -15 -88.5t-39.5 -56.5t-48 -27.5t-46.5 -8.5q-64 0 -106.5 48t-42.5 126v503zM265 834q19 0 32 -13t13 -32t-13 -32.5t-32 -13.5t-32.5 13.5t-13.5 32.5t13.5 32t32.5 13zM144 834
q19 0 32 -13t13 -32t-13 -32.5t-32 -13.5t-32.5 13.5t-13.5 32.5t13.5 32t32.5 13z" />
    <glyph glyph-name="Yacute" unicode="&#xdd;" horiz-adv-x="313" 
d="M112 0v305l-105 363h88l58 -262h2l61 262h89l-107 -363v-305h-86zM123 715l21 146h95l-71 -146h-45z" />
    <glyph glyph-name="Thorn" unicode="&#xde;" horiz-adv-x="375" 
d="M62 0v668h86v-146h5q91 0 146 -48.5t55 -137.5t-50 -139.5t-138 -50.5h-18v-146h-86zM148 226h15q105 0 105 115q0 104 -120 101v-216z" />
    <glyph glyph-name="germandbls" unicode="&#xdf;" horiz-adv-x="354" 
d="M46 0v487q0 61 4 84q9 50 41 78t79 28q59 0 94 -43t35 -115q0 -48 -14.5 -78t-48.5 -53q46 -17 66 -62t20 -128q0 -91 -27 -142q-14 -28 -39.5 -45t-52.5 -17q-23 0 -40 9v66q7 -2 17 -2q33 0 47.5 34t14.5 112q0 71 -16.5 100.5t-57.5 31.5v71q58 4 58 101t-55 97
q-47 0 -47 -69v-545h-78z" />
    <glyph glyph-name="agrave" unicode="&#xe0;" 
d="M322 82v-59q-37 -33 -61 -33q-43 0 -57 56q-43 -58 -85 -58q-35 0 -61 33.5t-26 78.5q0 52 35.5 87.5t133.5 93.5v42q0 58 -46 58q-47 0 -112 -73v90q34 32 60 44.5t58 12.5q47 0 82.5 -31t35.5 -88v-250q0 -26 12 -26q7 0 31 22zM201 113v114q-92 -56 -92 -115
q0 -22 10.5 -36t27.5 -14q32 0 54 51zM200 515h-45l-71 146h95z" />
    <glyph glyph-name="aacute" unicode="&#xe1;" 
d="M322 82v-59q-37 -33 -61 -33q-43 0 -57 56q-43 -58 -85 -58q-35 0 -61 33.5t-26 78.5q0 52 35.5 87.5t133.5 93.5v42q0 58 -46 58q-47 0 -112 -73v90q34 32 60 44.5t58 12.5q47 0 82.5 -31t35.5 -88v-250q0 -26 12 -26q7 0 31 22zM201 113v114q-92 -56 -92 -115
q0 -22 10.5 -36t27.5 -14q32 0 54 51zM133 515l21 146h95l-71 -146h-45z" />
    <glyph glyph-name="acircumflex" unicode="&#xe2;" 
d="M322 82v-59q-37 -33 -61 -33q-43 0 -57 56q-43 -58 -85 -58q-35 0 -61 33.5t-26 78.5q0 52 35.5 87.5t133.5 93.5v42q0 58 -46 58q-47 0 -112 -73v90q34 32 60 44.5t58 12.5q47 0 82.5 -31t35.5 -88v-250q0 -26 12 -26q7 0 31 22zM201 113v114q-92 -56 -92 -115
q0 -22 10.5 -36t27.5 -14q32 0 54 51zM63 513l55 150h97l55 -150h-45l-58 97l-59 -97h-45z" />
    <glyph glyph-name="atilde" unicode="&#xe3;" 
d="M322 82v-59q-37 -33 -61 -33q-43 0 -57 56q-43 -58 -85 -58q-35 0 -61 33.5t-26 78.5q0 52 35.5 87.5t133.5 93.5v42q0 58 -46 58q-47 0 -112 -73v90q34 32 60 44.5t58 12.5q47 0 82.5 -31t35.5 -88v-250q0 -26 12 -26q7 0 31 22zM201 113v114q-92 -56 -92 -115
q0 -22 10.5 -36t27.5 -14q32 0 54 51zM25 535q-5 48 15.5 77.5t63.5 29.5q25 0 68 -13.5t58 -13.5q25 0 35 27h43q7 -49 -16.5 -78t-60.5 -29q-21 0 -61.5 14.5t-54.5 14.5q-33 0 -45 -29h-45z" />
    <glyph glyph-name="adieresis" unicode="&#xe4;" 
d="M322 82v-59q-37 -33 -61 -33q-43 0 -57 56q-43 -58 -85 -58q-35 0 -61 33.5t-26 78.5q0 52 35.5 87.5t133.5 93.5v42q0 58 -46 58q-47 0 -112 -73v90q34 32 60 44.5t58 12.5q47 0 82.5 -31t35.5 -88v-250q0 -26 12 -26q7 0 31 22zM201 113v114q-92 -56 -92 -115
q0 -22 10.5 -36t27.5 -14q32 0 54 51zM228 634q19 0 32 -13t13 -32t-13 -32.5t-32 -13.5t-32.5 13.5t-13.5 32.5t13.5 32t32.5 13zM107 634q19 0 32 -13t13 -32t-13 -32.5t-32 -13.5t-32.5 13.5t-13.5 32.5t13.5 32t32.5 13z" />
    <glyph glyph-name="aring" unicode="&#xe5;" 
d="M322 82v-59q-37 -33 -61 -33q-43 0 -57 56q-43 -58 -85 -58q-35 0 -61 33.5t-26 78.5q0 52 35.5 87.5t133.5 93.5v42q0 58 -46 58q-47 0 -112 -73v90q34 32 60 44.5t58 12.5q47 0 82.5 -31t35.5 -88v-250q0 -26 12 -26q7 0 31 22zM201 113v114q-92 -56 -92 -115
q0 -22 10.5 -36t27.5 -14q32 0 54 51zM167 668q32 0 54.5 -22.5t22.5 -54.5t-22.5 -55t-54.5 -23t-55 23t-23 55t23 54.5t55 22.5zM167 639q-20 0 -34 -14t-14 -34t14 -34t34 -14t34 14t14 34t-14 34t-34 14z" />
    <glyph glyph-name="ae" unicode="&#xe6;" horiz-adv-x="479" 
d="M45 314v87q55 54 118 54q56 0 90 -44q31 44 76 44q65 0 95 -68t25 -183h-166q-5 -81 19.5 -113.5t60.5 -32.5q39 0 78 40v-72q-41 -38 -91 -38q-80 0 -123 71q-50 -71 -105 -71q-39 0 -64.5 31.5t-25.5 79.5q0 51 32 84t140 98q13 100 -48 100q-54 0 -111 -67zM205 98
v129q-56 -34 -77 -57.5t-21 -56.5q0 -26 11.5 -40.5t31.5 -14.5q29 0 55 40zM282 262h91q-1 69 -12 97t-35 28q-49 0 -44 -125z" />
    <glyph glyph-name="ccedilla" unicode="&#xe7;" horiz-adv-x="281" 
d="M106 -85l36 85q-48 21 -77.5 80t-29.5 138q0 104 44.5 170.5t114.5 66.5q32 0 70 -16v-80q-36 22 -58 22q-42 0 -66.5 -43.5t-24.5 -117.5q0 -72 26.5 -115t72.5 -43q25 0 57 25v-75q-35 -22 -66 -23l-18 -41q56 -14 56 -74q0 -55 -47.5 -86.5t-139.5 -31.5v55
q107 0 107 58q0 41 -57 46z" />
    <glyph glyph-name="egrave" unicode="&#xe8;" horiz-adv-x="313" 
d="M267 104v-77q-42 -39 -91 -39q-67 0 -104.5 60t-37.5 174q0 110 32.5 171.5t90.5 61.5q57 0 93 -66q27 -50 26 -185h-164q0 -144 79 -144q43 0 76 44zM111 262h87q0 125 -45 125q-42 0 -42 -125zM190 515h-45l-71 146h95z" />
    <glyph glyph-name="eacute" unicode="&#xe9;" horiz-adv-x="313" 
d="M267 104v-77q-42 -39 -91 -39q-67 0 -104.5 60t-37.5 174q0 110 32.5 171.5t90.5 61.5q57 0 93 -66q27 -50 26 -185h-164q0 -144 79 -144q43 0 76 44zM111 262h87q0 125 -45 125q-42 0 -42 -125zM123 515l21 146h95l-71 -146h-45z" />
    <glyph glyph-name="ecircumflex" unicode="&#xea;" horiz-adv-x="313" 
d="M267 104v-77q-42 -39 -91 -39q-67 0 -104.5 60t-37.5 174q0 110 32.5 171.5t90.5 61.5q57 0 93 -66q27 -50 26 -185h-164q0 -144 79 -144q43 0 76 44zM111 262h87q0 125 -45 125q-42 0 -42 -125zM53 513l55 150h97l55 -150h-45l-58 97l-59 -97h-45z" />
    <glyph glyph-name="edieresis" unicode="&#xeb;" horiz-adv-x="313" 
d="M267 104v-77q-42 -39 -91 -39q-67 0 -104.5 60t-37.5 174q0 110 32.5 171.5t90.5 61.5q57 0 93 -66q27 -50 26 -185h-164q0 -144 79 -144q43 0 76 44zM111 262h87q0 125 -45 125q-42 0 -42 -125zM218 634q19 0 32 -13t13 -32t-13 -32.5t-32 -13.5t-32.5 13.5t-13.5 32.5
t13.5 32t32.5 13zM97 634q19 0 32 -13t13 -32t-13 -32.5t-32 -13.5t-32.5 13.5t-13.5 32.5t13.5 32t32.5 13z" />
    <glyph glyph-name="igrave" unicode="&#xec;" horiz-adv-x="177" 
d="M50 0v443h78v-443h-78zM122 515h-45l-71 146h95z" />
    <glyph glyph-name="iacute" unicode="&#xed;" horiz-adv-x="177" 
d="M50 0v443h78v-443h-78zM55 515l21 146h95l-71 -146h-45z" />
    <glyph glyph-name="icircumflex" unicode="&#xee;" horiz-adv-x="177" 
d="M50 0v443h78v-443h-78zM-15 513l55 150h97l55 -150h-45l-58 97l-59 -97h-45z" />
    <glyph glyph-name="idieresis" unicode="&#xef;" horiz-adv-x="177" 
d="M50 0v443h78v-443h-78zM150 634q19 0 32 -13t13 -32t-13 -32.5t-32 -13.5t-32.5 13.5t-13.5 32.5t13.5 32t32.5 13zM29 634q19 0 32 -13t13 -32t-13 -32.5t-32 -13.5t-32.5 13.5t-13.5 32.5t13.5 32t32.5 13z" />
    <glyph glyph-name="eth" unicode="&#xf0;" horiz-adv-x="320" 
d="M95 502l-22 35l71 28q-26 33 -57 64h67q9 -9 35 -41l77 32l22 -35l-73 -31q43 -58 64 -141q19 -72 19 -189q0 -107 -38 -171.5t-101 -64.5q-62 0 -100.5 61t-38.5 171q0 109 36.5 172t91.5 63q34 0 58 -24l2 2q-11 51 -42 98zM100 223q0 -76 15.5 -118.5t44.5 -42.5
q28 0 43 42.5t15 118.5q0 158 -60 158q-58 0 -58 -158z" />
    <glyph glyph-name="ntilde" unicode="&#xf1;" horiz-adv-x="354" 
d="M49 0v443h78v-48h2q34 55 82 55q43 0 70 -34t27 -97v-319h-78v317q0 64 -42 64q-34 0 -61 -53v-328h-78zM36 535q-5 48 15.5 77.5t63.5 29.5q25 0 68 -13.5t58 -13.5q25 0 35 27h43q7 -49 -16.5 -78t-60.5 -29q-21 0 -61.5 14.5t-54.5 14.5q-33 0 -45 -29h-45z" />
    <glyph glyph-name="ograve" unicode="&#xf2;" horiz-adv-x="344" 
d="M33 221q0 109 37 171.5t102 62.5t102 -62.5t37 -171.5q0 -108 -37.5 -170.5t-101.5 -62.5t-101.5 62.5t-37.5 170.5zM113 221q0 -159 60 -159q58 0 58 159q0 160 -60 160q-58 0 -58 -160zM206 515h-45l-71 146h95z" />
    <glyph glyph-name="oacute" unicode="&#xf3;" horiz-adv-x="344" 
d="M33 221q0 109 37 171.5t102 62.5t102 -62.5t37 -171.5q0 -108 -37.5 -170.5t-101.5 -62.5t-101.5 62.5t-37.5 170.5zM113 221q0 -159 60 -159q58 0 58 159q0 160 -60 160q-58 0 -58 -160zM139 515l21 146h95l-71 -146h-45z" />
    <glyph glyph-name="ocircumflex" unicode="&#xf4;" horiz-adv-x="344" 
d="M33 221q0 109 37 171.5t102 62.5t102 -62.5t37 -171.5q0 -108 -37.5 -170.5t-101.5 -62.5t-101.5 62.5t-37.5 170.5zM113 221q0 -159 60 -159q58 0 58 159q0 160 -60 160q-58 0 -58 -160zM69 513l55 150h97l55 -150h-45l-58 97l-59 -97h-45z" />
    <glyph glyph-name="otilde" unicode="&#xf5;" horiz-adv-x="344" 
d="M33 221q0 109 37 171.5t102 62.5t102 -62.5t37 -171.5q0 -108 -37.5 -170.5t-101.5 -62.5t-101.5 62.5t-37.5 170.5zM113 221q0 -159 60 -159q58 0 58 159q0 160 -60 160q-58 0 -58 -160zM31 535q-5 48 15.5 77.5t63.5 29.5q25 0 68 -13.5t58 -13.5q25 0 35 27h43
q7 -49 -16.5 -78t-60.5 -29q-21 0 -61.5 14.5t-54.5 14.5q-33 0 -45 -29h-45z" />
    <glyph glyph-name="odieresis" unicode="&#xf6;" horiz-adv-x="344" 
d="M33 221q0 109 37 171.5t102 62.5t102 -62.5t37 -171.5q0 -108 -37.5 -170.5t-101.5 -62.5t-101.5 62.5t-37.5 170.5zM113 221q0 -159 60 -159q58 0 58 159q0 160 -60 160q-58 0 -58 -160zM234 634q19 0 32 -13t13 -32t-13 -32.5t-32 -13.5t-32.5 13.5t-13.5 32.5t13.5 32
t32.5 13zM113 634q19 0 32 -13t13 -32t-13 -32.5t-32 -13.5t-32.5 13.5t-13.5 32.5t13.5 32t32.5 13z" />
    <glyph glyph-name="divide" unicode="&#xf7;" horiz-adv-x="668" 
d="M571 311h-473v83h473v-83zM334 588q20 0 35 -14.5t15 -34.5t-15 -35t-35 -15t-34.5 15t-14.5 35t14.5 34.5t34.5 14.5zM334 216q20 0 35 -14.5t15 -34.5t-15 -35t-35 -15t-34.5 15t-14.5 35t14.5 34.5t34.5 14.5z" />
    <glyph glyph-name="oslash" unicode="&#xf8;" horiz-adv-x="344" 
d="M115 171l100 172q-16 38 -44 38q-58 0 -58 -160v-50h2zM86 30l-21 -36l-41 25l33 56q-24 70 -24 146q0 109 37 171.5t102 62.5q52 0 85 -41l22 37l41 -23l-34 -58q25 -67 25 -149q0 -108 -37.5 -170.5t-101.5 -62.5q-53 0 -86 42zM229 275l-100 -172q16 -41 44 -41
q58 0 58 159v54h-2z" />
    <glyph glyph-name="ugrave" unicode="&#xf9;" horiz-adv-x="354" 
d="M302 443v-443h-78v48h-2q-18 -31 -35.5 -43t-43.5 -12q-43 0 -71.5 32.5t-28.5 94.5v323h78v-317q0 -63 42 -63q40 0 61 52v328h78zM211 515h-45l-71 146h95z" />
    <glyph glyph-name="uacute" unicode="&#xfa;" horiz-adv-x="354" 
d="M302 443v-443h-78v48h-2q-18 -31 -35.5 -43t-43.5 -12q-43 0 -71.5 32.5t-28.5 94.5v323h78v-317q0 -63 42 -63q40 0 61 52v328h78zM144 515l21 146h95l-71 -146h-45z" />
    <glyph glyph-name="ucircumflex" unicode="&#xfb;" horiz-adv-x="354" 
d="M302 443v-443h-78v48h-2q-18 -31 -35.5 -43t-43.5 -12q-43 0 -71.5 32.5t-28.5 94.5v323h78v-317q0 -63 42 -63q40 0 61 52v328h78zM74 513l55 150h97l55 -150h-45l-58 97l-59 -97h-45z" />
    <glyph glyph-name="udieresis" unicode="&#xfc;" horiz-adv-x="354" 
d="M302 443v-443h-78v48h-2q-18 -31 -35.5 -43t-43.5 -12q-43 0 -71.5 32.5t-28.5 94.5v323h78v-317q0 -63 42 -63q40 0 61 52v328h78zM239 634q19 0 32 -13t13 -32t-13 -32.5t-32 -13.5t-32.5 13.5t-13.5 32.5t13.5 32t32.5 13zM118 634q19 0 32 -13t13 -32t-13 -32.5
t-32 -13.5t-32.5 13.5t-13.5 32.5t13.5 32t32.5 13z" />
    <glyph glyph-name="yacute" unicode="&#xfd;" horiz-adv-x="313" 
d="M35 -244l90 322l-117 365h81l72 -231h2l64 231h78l-192 -687h-78zM123 515l21 146h95l-71 -146h-45z" />
    <glyph glyph-name="thorn" unicode="&#xfe;" horiz-adv-x="354" 
d="M49 -239v900h78v-250h2q25 39 67 39q55 0 91 -67t36 -168q0 -100 -35.5 -163.5t-91.5 -63.5q-38 0 -67 39h-2v-266h-78zM127 337v-235q27 -40 54 -40q16 0 28.5 11.5t23 48t10.5 94.5q0 160 -69 160q-29 0 -47 -39z" />
    <glyph glyph-name="ydieresis" unicode="&#xff;" horiz-adv-x="313" 
d="M35 -244l90 322l-117 365h81l72 -231h2l64 231h78l-192 -687h-78zM218 634q19 0 32 -13t13 -32t-13 -32.5t-32 -13.5t-32.5 13.5t-13.5 32.5t13.5 32t32.5 13zM97 634q19 0 32 -13t13 -32t-13 -32.5t-32 -13.5t-32.5 13.5t-13.5 32.5t13.5 32t32.5 13z" />
    <glyph glyph-name="dotlessi" unicode="&#x131;" horiz-adv-x="177" 
d="M50 0v443h78v-443h-78z" />
    <glyph glyph-name="Lslash" unicode="&#x141;" horiz-adv-x="313" 
d="M59 0v268l-59 -83v81l59 80v322h86v-223l71 99v-81l-71 -96v-287h165v-80h-251z" />
    <glyph glyph-name="lslash" unicode="&#x142;" horiz-adv-x="260" 
d="M237 454l-68 -85v-369h-78v287l-68 -85v72l68 86v308h78v-226l68 86v-74z" />
    <glyph glyph-name="OE" unicode="&#x152;" horiz-adv-x="521" 
d="M502 0h-240q-109 0 -168.5 82t-59.5 240q0 346 232 346h230v-80h-138v-198h132v-80h-132v-230h144v-80zM272 79v509h-6q-146 0 -146 -258q0 -126 40 -188.5t112 -62.5z" />
    <glyph glyph-name="oe" unicode="&#x153;" horiz-adv-x="521" 
d="M476 104v-77q-24 -21 -43.5 -30t-49.5 -9q-70 0 -107 61q-41 -61 -102 -61q-65 0 -103 63t-38 170q0 109 38 171.5t103 62.5q59 0 98 -54q33 54 90 54q126 0 124 -251h-170q0 -69 21 -106.5t62 -37.5t77 44zM113 223q0 -161 63 -161q60 0 60 157q0 162 -61 162
q-62 0 -62 -158zM316 262h91q0 37 -2.5 61t-13.5 44t-32 20q-25 0 -34 -29.5t-9 -95.5z" />
    <glyph glyph-name="Scaron" unicode="&#x160;" horiz-adv-x="281" 
d="M32 17v89q39 -37 75 -37q27 0 46 19t19 46q0 34 -22.5 85.5t-49.5 97t-49.5 103.5t-22.5 104q0 68 38 110.5t98 42.5q33 0 72 -18v-81q-36 21 -60 21q-65 0 -65 -64q0 -35 22.5 -86t49.5 -96t49.5 -103t22.5 -105q0 -68 -38.5 -111t-99.5 -43q-43 0 -85 26zM37 863h45
l59 -97l58 97h45l-55 -150h-97z" />
    <glyph glyph-name="scaron" unicode="&#x161;" horiz-adv-x="250" 
d="M28 24v86q44 -48 77 -48q17 0 28 11t11 27q0 27 -27.5 69t-55.5 90.5t-28 91.5q0 45 27 74.5t69 29.5q37 0 74 -28v-74q-38 31 -67 31q-14 0 -22.5 -9t-8.5 -24q0 -21 18 -51t40 -57.5t40 -66t18 -74.5q0 -49 -30 -81.5t-76 -32.5q-42 0 -87 36zM22 663h45l59 -97l58 97
h45l-55 -150h-97z" />
    <glyph glyph-name="Ydieresis" unicode="&#x178;" horiz-adv-x="313" 
d="M112 0v305l-105 363h88l58 -262h2l61 262h89l-107 -363v-305h-86zM218 834q19 0 32 -13t13 -32t-13 -32.5t-32 -13.5t-32.5 13.5t-13.5 32.5t13.5 32t32.5 13zM97 834q19 0 32 -13t13 -32t-13 -32.5t-32 -13.5t-32.5 13.5t-13.5 32.5t13.5 32t32.5 13z" />
    <glyph glyph-name="Zcaron" unicode="&#x17d;" horiz-adv-x="292" 
d="M16 0l154 588h-136v80h242l-154 -588h154v-80h-260zM43 863h45l59 -97l58 97h45l-55 -150h-97z" />
    <glyph glyph-name="zcaron" unicode="&#x17e;" horiz-adv-x="281" 
d="M14 0l138 375h-125v68h233l-140 -375h143v-68h-249zM37 663h45l59 -97l58 97h45l-55 -150h-97z" />
    <glyph glyph-name="florin" unicode="&#x192;" horiz-adv-x="556" 
d="M49 -230l17 75q39 -17 67 -17q23 0 32 13.5t15 48.5l83 485h-81l11 68h82l18 108q11 68 40.5 97t85.5 29q37 0 90 -18l-17 -75q-39 13 -67 13q-15 0 -24 -10t-13 -24t-10 -46l-13 -74h83l-12 -68h-84l-86 -494q-12 -68 -43 -97.5t-87 -29.5q-50 0 -87 16z" />
    <glyph glyph-name="circumflex" unicode="&#x2c6;" 
d="M63 513l55 150h97l55 -150h-45l-58 97l-59 -97h-45z" />
    <glyph glyph-name="caron" unicode="&#x2c7;" 
d="M63 663h45l59 -97l58 97h45l-55 -150h-97z" />
    <glyph glyph-name="uni02C9" unicode="&#x2c9;" 
d="M71 557v65h191v-65h-191z" />
    <glyph glyph-name="breve" unicode="&#x2d8;" 
d="M63 654h50q2 -35 16.5 -55t37.5 -20t37 20t16 55h51v-7q0 -56 -28.5 -90.5t-75.5 -34.5q-49 0 -77 35.5t-27 96.5z" />
    <glyph glyph-name="dotaccent" unicode="&#x2d9;" 
d="M167 634q19 0 32 -13t13 -32t-13 -32.5t-32 -13.5t-32.5 13.5t-13.5 32.5t13.5 32t32.5 13z" />
    <glyph glyph-name="ring" unicode="&#x2da;" 
d="M167 668q32 0 54.5 -22.5t22.5 -54.5t-22.5 -55t-54.5 -23t-55 23t-23 55t23 54.5t55 22.5zM167 639q-20 0 -34 -14t-14 -34t14 -34t34 -14t34 14t14 34t-14 34t-34 14z" />
    <glyph glyph-name="ogonek" unicode="&#x2db;" 
d="M116 13h61q-7 -43 -7 -70q0 -79 49 -79q19 0 46 13v-78q-43 -23 -76 -23q-42 0 -66 31.5t-24 87.5q0 40 17 118z" />
    <glyph glyph-name="tilde" unicode="&#x2dc;" 
d="M25 535q-5 48 15.5 77.5t63.5 29.5q25 0 68 -13.5t58 -13.5q25 0 35 27h43q7 -49 -16.5 -78t-60.5 -29q-21 0 -61.5 14.5t-54.5 14.5q-33 0 -45 -29h-45z" />
    <glyph glyph-name="hungarumlaut" unicode="&#x2dd;" 
d="M225 495l21 146h95l-71 -146h-45zM90 495l21 146h95l-71 -146h-45z" />
    <glyph glyph-name="uni03A9" unicode="&#x3a9;" horiz-adv-x="454" 
d="M117 73v3q-81 122 -81 290q0 136 54 221t140 85q59 0 102.5 -43t63.5 -109.5t20 -145.5q0 -89 -24 -168.5t-58 -129.5v-3h91v-73h-165v52q32 37 53.5 117t21.5 182q0 63 -10.5 116.5t-35.5 91t-62 37.5q-52 0 -81.5 -68.5t-29.5 -177.5q0 -97 22.5 -180t52.5 -118v-52
h-165v73h91z" />
    <glyph glyph-name="uni03BC" unicode="&#x3bc;" horiz-adv-x="556" 
d="M407 443v-443h-78v40h-2q-8 -48 -49 -48q-13 0 -29.5 11.5t-19.5 35.5h-2v-205h-78v609h78v-294q0 -71 51 -71t51 71v294h78z" />
    <glyph glyph-name="pi" unicode="&#x3c0;" horiz-adv-x="402" 
d="M383 419h-48v-295q0 -81 10 -124h-75q-13 29 -13 123v296h-97q-10 -270 -47 -419h-76q19 81 31.5 203.5t13.5 215.5q-40 0 -64 -8l-10 59q32 26 108 26h273z" />
    <glyph glyph-name="endash" unicode="&#x2013;" horiz-adv-x="500" 
d="M-6 249h512v-45h-512v45z" />
    <glyph glyph-name="emdash" unicode="&#x2014;" horiz-adv-x="1000" 
d="M-6 249h1012v-45h-1012v45z" />
    <glyph glyph-name="quoteleft" unicode="&#x2018;" horiz-adv-x="177" 
d="M135 677l1 -9q-33 -49 -28 -113q42 -10 42 -53q0 -24 -15.5 -40.5t-38.5 -16.5q-29 0 -46.5 24.5t-17.5 64.5q0 99 103 143z" />
    <glyph glyph-name="quoteright" unicode="&#x2019;" horiz-adv-x="177" 
d="M42 445l-1 9q33 49 28 113q-42 10 -42 53q0 24 15.5 40.5t38.5 16.5q29 0 46.5 -24.5t17.5 -64.5q0 -99 -103 -143z" />
    <glyph glyph-name="quotesinglbase" unicode="&#x201a;" horiz-adv-x="177" 
d="M37 -130l-1 9q33 49 28 113q-42 10 -42 53q0 24 15.5 40.5t38.5 16.5q29 0 46.5 -24.5t17.5 -64.5q0 -99 -103 -143z" />
    <glyph glyph-name="quotedblleft" unicode="&#x201c;" horiz-adv-x="323" 
d="M285 677l1 -9q-33 -49 -28 -113q42 -10 42 -53q0 -24 -15.5 -40.5t-38.5 -16.5q-29 0 -46.5 24.5t-17.5 64.5q0 99 103 143zM128 677l1 -9q-33 -49 -28 -113q42 -10 42 -53q0 -24 -15.5 -40.5t-38.5 -16.5q-29 0 -46.5 24.5t-17.5 64.5q0 99 103 143z" />
    <glyph glyph-name="quotedblright" unicode="&#x201d;" horiz-adv-x="323" 
d="M195 445l-1 9q33 49 28 113q-42 10 -42 53q0 24 15.5 40.5t38.5 16.5q29 0 46.5 -24.5t17.5 -64.5q0 -99 -103 -143zM38 445l-1 9q33 49 28 113q-42 10 -42 53q0 24 15.5 40.5t38.5 16.5q29 0 46.5 -24.5t17.5 -64.5q0 -99 -103 -143z" />
    <glyph glyph-name="quotedblbase" unicode="&#x201e;" horiz-adv-x="323" 
d="M195 -130l-1 9q33 49 28 113q-42 10 -42 53q0 24 15.5 40.5t38.5 16.5q29 0 46.5 -24.5t17.5 -64.5q0 -99 -103 -143zM38 -130l-1 9q33 49 28 113q-42 10 -42 53q0 24 15.5 40.5t38.5 16.5q29 0 46.5 -24.5t17.5 -64.5q0 -99 -103 -143z" />
    <glyph glyph-name="dagger" unicode="&#x2020;" horiz-adv-x="354" 
d="M162 383q-71 -23 -95 -23q-18 0 -30 11t-12 27q0 17 12 26.5t33 9.5q15 0 46 -7t46 -13q-26 104 -26 176q0 87 41 87q20 0 31 -23.5t11 -63.5q0 -68 -27 -176q64 20 93 20q20 0 32.5 -10t12.5 -26t-12.5 -27t-30.5 -11q-26 0 -95 23q0 -67 16 -195.5t16 -228.5
q0 -115 -10.5 -160t-36.5 -45t-36 45t-10 160q0 120 15.5 238t15.5 186z" />
    <glyph glyph-name="daggerdbl" unicode="&#x2021;" horiz-adv-x="354" 
d="M330 35q0 -17 -12.5 -27t-33.5 -10q-22 0 -61 11l-31 9q27 -108 27 -177q0 -40 -11 -63.5t-31 -23.5q-41 0 -41 87q0 73 26 177q-62 -20 -93 -20q-20 0 -32 10t-12 27q0 15 12 26t30 11q30 0 95 -23q0 53 -13 166q12 102 13 167q-71 -23 -95 -23q-18 0 -30 11t-12 27
q0 17 12 26.5t33 9.5q30 0 92 -20q-26 104 -26 177q0 87 41 87q20 0 31 -23.5t11 -63.5q0 -69 -27 -177q62 20 93 20q20 0 32.5 -10t12.5 -26t-12.5 -27t-30.5 -11q-26 0 -95 23q1 -65 13 -167q-12 -101 -13 -166q65 23 95 23q18 0 30.5 -11t12.5 -26z" />
    <glyph glyph-name="bullet" unicode="&#x2022;" horiz-adv-x="350" 
d="M176 474q51 0 87 -36t36 -87t-36 -87.5t-87 -36.5t-87.5 36.5t-36.5 87.5t36.5 87t87.5 36z" />
    <glyph glyph-name="ellipsis" unicode="&#x2026;" horiz-adv-x="1000" 
d="M834 100q22 0 38 -16t16 -38q0 -23 -16 -39t-38 -16t-38.5 16.5t-16.5 38.5t16 38t39 16zM501 100q23 0 38.5 -16t15.5 -38q0 -23 -16 -39t-38 -16q-23 0 -39 16.5t-16 38.5t16 38t39 16zM168 100q22 0 38 -16t16 -38q0 -23 -16 -39t-38 -16t-38.5 16.5t-16.5 38.5t16 38
t39 16z" />
    <glyph glyph-name="perthousand" unicode="&#x2030;" horiz-adv-x="708" 
d="M507 170q0 177 92 177t92 -176q0 -178 -92 -178t-92 177zM626 166q0 71 -5.5 99.5t-21.5 28.5q-15 0 -21 -28.5t-6 -100.5q0 -118 27 -118q15 0 21 27t6 92zM291 170q0 177 92 177t92 -176q0 -178 -92 -178t-92 177zM410 166q0 71 -5.5 99.5t-21.5 28.5q-15 0 -21 -28.5
t-6 -100.5q0 -118 27 -118q15 0 21 27t6 92zM17 498q0 177 92 177t92 -176q0 -178 -92 -178t-92 177zM136 494q0 71 -5.5 99.5t-21.5 28.5q-15 0 -21 -28.5t-6 -100.5q0 -118 27 -118q15 0 21 27t6 92zM42 -30l342 707h62l-341 -707h-63z" />
    <glyph glyph-name="guilsinglleft" unicode="&#x2039;" horiz-adv-x="146" 
d="M70 221l76 -233h-69l-78 233l78 233h69z" />
    <glyph glyph-name="guilsinglright" unicode="&#x203a;" horiz-adv-x="146" 
d="M76 221l-76 233h69l78 -233l-78 -233h-69z" />
    <glyph glyph-name="fraction" unicode="&#x2044;" horiz-adv-x="177" 
d="M-116 -30l343 707h61l-341 -707h-63z" />
    <glyph glyph-name="Euro" unicode="&#x20ac;" horiz-adv-x="365" 
d="M346 16q-40 -28 -114 -28q-84 0 -134.5 68t-62.5 195h-42l10 58h29v18v27h-39l10 58h33q13 121 62.5 192t136.5 71q63 0 106 -27l-12 -81q-35 30 -88 30q-101 0 -117 -185h183l-10 -58h-177v-23v-22h169l-10 -58h-156q18 -184 122 -184q27 0 48 7t53 32v-90z" />
    <glyph glyph-name="afii61289" unicode="&#x2113;" horiz-adv-x="345" 
d="M300 132l32 -33q-44 -107 -131 -107q-125 0 -125 175q1 4 1 13q-6 -6 -19 -18.5t-20 -19.5l-20 46q40 42 59 66v254q0 112 34 166t86 54q43 0 65.5 -40.5t22.5 -111.5q0 -156 -132 -328v-50q0 -139 64 -139q43 0 83 73zM153 497v-162q87 134 87 247q0 80 -40 80
q-47 0 -47 -165z" />
    <glyph glyph-name="trademark" unicode="&#x2122;" horiz-adv-x="1000" 
d="M239 318v340h-129v58h325v-58h-130v-340h-66zM480 318v398h97l97 -318h2l99 318h96v-398h-61v334h-2l-104 -334h-58l-104 334h-2v-334h-60z" />
    <glyph glyph-name="Omega" unicode="&#x2126;" horiz-adv-x="454" 
d="M117 73v3q-81 122 -81 290q0 136 54 221t140 85q59 0 102.5 -43t63.5 -109.5t20 -145.5q0 -89 -24 -168.5t-58 -129.5v-3h91v-73h-165v52q32 37 53.5 117t21.5 182q0 63 -10.5 116.5t-35.5 91t-62 37.5q-52 0 -81.5 -68.5t-29.5 -177.5q0 -97 22.5 -180t52.5 -118v-52
h-165v73h91z" />
    <glyph glyph-name="estimated" unicode="&#x212e;" horiz-adv-x="828" 
d="M795 322h-618q-5 0 -5 -4v-187q0 -11 8 -22q98 -101 234 -101q147 0 246 114h55q-52 -62 -131.5 -97.5t-170.5 -35.5q-158 0 -269.5 100t-111.5 242t111.5 243t269.5 101q159 0 270.5 -100.5t111.5 -243.5v-9zM655 346v188q0 14 -9 23q-99 97 -232 97q-135 0 -233 -100
q-9 -10 -9 -24v-184q0 -6 5 -6h474q4 0 4 6z" />
    <glyph glyph-name="partialdiff" unicode="&#x2202;" horiz-adv-x="391" 
d="M75 630l-22 69q50 48 118 48q77 0 130.5 -86.5t53.5 -266.5q0 -196 -48.5 -298t-138.5 -102q-63 0 -99.5 60.5t-36.5 154.5q0 114 45 182.5t107 68.5q33 0 57 -17.5t35 -40.5h1q1 7 1 30q0 100 -33 170.5t-84 70.5q-47 0 -86 -43zM175 69h1q39 0 64.5 72t31.5 174
q-9 30 -28 51t-47 21q-37 0 -62 -54t-25 -128q0 -63 17 -99.5t48 -36.5z" />
    <glyph glyph-name="Delta" unicode="&#x2206;" horiz-adv-x="438" 
d="M23 0v53l154 623h90l148 -621v-55h-392zM101 71h234l-76 313q-5 27 -20 87t-19 83h-2q-3 -22 -17 -78t-19 -82z" />
    <glyph glyph-name="product" unicode="&#x220f;" horiz-adv-x="491" 
d="M468 582h-65v-674h-79v674h-158v-674h-80v674h-64v81h446v-81z" />
    <glyph glyph-name="summation" unicode="&#x2211;" horiz-adv-x="381" 
d="M366 -92h-346v61l173 318l-168 314v62h328v-72h-226v-4l153 -282l-171 -309v-4h257v-84z" />
    <glyph glyph-name="minus" unicode="&#x2212;" horiz-adv-x="667" 
d="M570 311h-473v83h473v-83z" />
    <glyph glyph-name="uni2215" unicode="&#x2215;" horiz-adv-x="177" 
d="M-116 -30l343 707h61l-341 -707h-63z" />
    <glyph glyph-name="uni2219" unicode="&#x2219;" horiz-adv-x="177" 
d="M89 387q23 0 38.5 -15.5t15.5 -38.5t-16 -39t-38 -16q-23 0 -39 16t-16 39q0 22 16 38t39 16z" />
    <glyph glyph-name="radical" unicode="&#x221a;" horiz-adv-x="421" 
d="M415 796l-153 -931h-65l-106 429l-52 -20l-13 52l117 46l71 -300q2 -12 7.5 -44t6.5 -42l1 -1q9 82 10 88l121 723h55z" />
    <glyph glyph-name="infinity" unicode="&#x221e;" horiz-adv-x="605" 
d="M568 276v-1q0 -60 -37 -96.5t-87 -36.5q-70 0 -140 89q-35 -43 -68.5 -66t-77.5 -23q-50 0 -85.5 37t-35.5 93q0 58 35.5 94.5t91.5 36.5q73 0 141 -88q1 1 12 13t13 14l12.5 12.5t15 13.5t14.5 11t17 10.5t17.5 6.5t21 5.5t21.5 1.5q52 0 85.5 -35t33.5 -92zM164 191h1
q22 0 44.5 14t33 25t34.5 39q-23 30 -35 44t-34.5 28t-46.5 14q-35 0 -54.5 -23.5t-19.5 -60.5q1 -34 23 -57t54 -23zM444 355h-1q-12 0 -24 -4.5t-21 -10t-20.5 -16t-17 -16.5t-16 -18.5t-13.5 -15.5q39 -47 62 -65t53 -18q32 0 52 25t20 55q0 38 -20.5 61t-53.5 23z" />
    <glyph glyph-name="integral" unicode="&#x222b;" horiz-adv-x="300" 
d="M274 806l-10 -63q-12 7 -24 7q-22 0 -35 -24q-21 -32 -21 -165q0 -75 4.5 -231t4.5 -239q0 -135 -30 -193q-27 -55 -90 -55q-28 0 -50 12l12 65q21 -7 28 -7q20 0 33 21q18 34 18 155q0 84 -4.5 243t-4.5 236q0 150 42 206q33 41 85 41q24 0 42 -9z" />
    <glyph glyph-name="approxequal" unicode="&#x2248;" horiz-adv-x="391" 
d="M331 396l32 -24q-13 -37 -39 -61t-58 -24t-79 31q-40 28 -63 28q-21 0 -35 -15.5t-28 -43.5l-33 24q34 84 102 84q30 0 78 -30q46 -29 62 -29q19 0 32.5 15t28.5 45zM331 256l32 -25q-14 -37 -39.5 -60.5t-56.5 -23.5q-33 0 -80 31q-42 28 -62 28q-22 0 -36 -15.5
t-28 -44.5l-33 25q16 38 42.5 61t59.5 23q10 0 19.5 -2t19 -6t15 -7t14 -8.5t10.5 -6.5q4 -3 16.5 -10.5t17 -10t13 -5.5t15.5 -3q19 0 32.5 15t28.5 45z" />
    <glyph glyph-name="notequal" unicode="&#x2260;" horiz-adv-x="391" 
d="M286 444l-29 -69h98v-53h-115l-44 -107h159v-52h-176l-35 -84l-39 15l28 69h-97v52h115l44 107h-159v53h176l34 84z" />
    <glyph glyph-name="lessequal" unicode="&#x2264;" horiz-adv-x="391" 
d="M353 106l-313 184v55l312 185v-64l-263 -147v-2l264 -147v-64zM356 19h-319v54h319v-54z" />
    <glyph glyph-name="greaterequal" unicode="&#x2265;" horiz-adv-x="391" 
d="M42 530l312 -185v-55l-312 -184v64l263 147v2l-263 147v64zM356 19h-318v54h318v-54z" />
    <glyph glyph-name="lozenge" unicode="&#x25ca;" horiz-adv-x="421" 
d="M382 331l-141 -365h-67l-135 365l140 366h68zM308 329l-81 228q-7 25 -14 62h-3q-6 -38 -14 -62l-83 -223l82 -232q6 -22 12 -59h4q5 31 13 57z" />
    </font>
</defs>
</svg>
