<?xml version="1.0" standalone="no"?>
<!DOCTYPE svg PUBLIC "-//W3C//DTD SVG 1.1//EN" "http://www.w3.org/Graphics/SVG/1.1/DTD/svg11.dtd" >
<svg xmlns="http://www.w3.org/2000/svg" xmlns:xlink="http://www.w3.org/1999/xlink" version="1.1">
<metadata>
Created by FontForge 20170731 at Thu May 15 14:20:39 2003
 By ,,,
Copyright (c) 1993, 2002 Adobe Systems Incorporated. All Rights Reserved.  (c) Copyright 1993, 2002 The Monotype Corporation plc. All Rights Reserved.
</metadata>
<defs>
<font id="GillSansStd-ExtraBoldDisp" horiz-adv-x="667" >
  <font-face 
    font-family="Gill Sans Std ExtraBold Display"
    font-weight="800"
    font-stretch="normal"
    units-per-em="1000"
    panose-1="2 11 9 2 2 1 4 2 0 4"
    ascent="682"
    descent="-318"
    x-height="537"
    cap-height="693"
    bbox="-222 -250 1486 942"
    underline-thickness="50"
    underline-position="-200"
    unicode-range="U+0020-FB02"
  />
<missing-glyph horiz-adv-x="500" 
d="M0 0v700h500v-700h-500zM250 395l170 255h-340zM280 350l170 -255v510zM80 50h340l-170 255zM50 605v-510l170 255z" />
    <glyph glyph-name="f_i" unicode="fi" horiz-adv-x="743" 
d="M308 489v-19h89v-134h-89v-336h-214v336h-79v134h79q0 56 7 89.5t29 62.5q61 80 189 80q78 0 148 -32v-130q-50 28 -92 28q-67 0 -67 -79zM681 537v-537h-214v537h214zM589 704q30 0 48 -20.5t18 -45.5q0 -29 -20 -48.5t-47 -19.5q-28 0 -47.5 19.5t-19.5 47.5
q0 27 19.5 47t48.5 20z" />
    <glyph glyph-name="f_l" unicode="fl" horiz-adv-x="743" 
d="M94 336h-79v134h79q0 55 6.5 88.5t29.5 63.5q62 80 187 80q84 0 150 -33v33h214v-702h-214v537q-50 31 -91 31q-68 0 -68 -79v-19h89v-134h-89v-336h-214v336z" />
    <glyph glyph-name=".notdef" horiz-adv-x="500" 
d="M0 0v700h500v-700h-500zM250 395l170 255h-340zM280 350l170 -255v510zM80 50h340l-170 255zM50 605v-510l170 255z" />
    <glyph glyph-name=".null" horiz-adv-x="0" 
 />
    <glyph glyph-name="nonmarkingreturn" horiz-adv-x="333" 
 />
    <glyph glyph-name="space" unicode=" " horiz-adv-x="300" 
 />
    <glyph glyph-name="exclam" unicode="!" horiz-adv-x="318" 
d="M125 240q-90 177 -90 292q0 72 30.5 121t87.5 49q58 0 94 -49t36 -128q0 -49 -17 -107.5t-31.5 -90.5t-42.5 -87q38 -11 60.5 -38t28 -47t5.5 -37q0 -50 -35 -88t-92 -38q-52 0 -89.5 36.5t-37.5 89.5q0 36 21 71.5t72 50.5z" />
    <glyph glyph-name="quotedbl" unicode="&#x22;" horiz-adv-x="500" 
d="M24 693h198v-118l-32 -145h-134l-32 145v118zM278 693h198v-118l-31 -145h-135l-32 145v118z" />
    <glyph glyph-name="numbersign" unicode="#" 
d="M33 524h144l40 178h119l-39 -178h146l38 178h120l-39 -178h72v-119h-94l-25 -120h119v-119h-142l-39 -176h-120l40 176h-149l-37 -176h-120l38 176h-72v119h97l24 120h-121v119zM420 405h-146l-25 -120h146z" />
    <glyph glyph-name="dollar" unicode="$" horiz-adv-x="583" 
d="M331 -92h-86v83q-124 9 -207 47v175q141 -77 236 -77q94 0 94 53q0 19 -14 32.5t-31 21t-62 23.5q-75 26 -115 47t-66 51q-42 50 -42 117q0 79 58.5 134.5t148.5 59.5v46h86v-46q102 -12 176 -63v-172q-129 104 -232 104q-32 0 -48 -14t-16 -29q0 -27 28 -43t106 -43
q30 -10 49 -17.5t51.5 -26t51.5 -39t34 -54.5t15 -75q0 -96 -83 -161q-47 -36 -132 -47v-87z" />
    <glyph glyph-name="percent" unicode="%" horiz-adv-x="1038" 
d="M164 518q0 -42 19 -59.5t44 -17.5q65 0 65 80q0 33 -15 52t-27 22t-22 3q-4 0 -9.5 -0.5t-16 -5t-18.5 -12.5t-14 -24t-6 -38zM15 520q0 42 20 81.5t70 70t122 30.5q101 0 157.5 -54t56.5 -128q0 -75 -57 -129.5t-157 -54.5q-97 0 -154.5 53.5t-57.5 130.5zM399 -8h-166
l407 710h165zM746 178q0 -42 19 -59.5t44 -17.5q65 0 65 80q0 33 -15 52t-27 22t-22 3q-4 0 -9.5 -0.5t-16 -5t-18.5 -12.5t-14 -24t-6 -38zM597 180q0 42 20 81.5t70 70t122 30.5q101 0 157.5 -54t56.5 -128q0 -75 -57 -129.5t-157 -54.5q-97 0 -154.5 53.5t-57.5 130.5z
" />
    <glyph glyph-name="ampersand" unicode="&#x26;" horiz-adv-x="794" 
d="M570 361h188q-57 -97 -138 -173q58 -42 105 -42q27 0 49 13l12 -9q-116 -158 -188 -158q-61 0 -127 68q-49 -34 -94 -51t-111 -17q-109 0 -166 51t-57 127q0 29 8.5 54.5t19 42t31.5 34.5t34 27t39 25q-72 79 -72 153q0 32 14.5 65.5t43 63t78 48.5t112.5 19
q59 0 103.5 -17t68 -43.5t34.5 -54t11 -54.5q0 -34 -12 -62t-35.5 -50t-38 -32t-39.5 -25l72 -74q38 45 55 71zM368 161l-101 93q-42 -32 -42 -68q0 -21 19.5 -39.5t46.5 -18.5q32 0 77 33zM299 537q0 -16 10.5 -31t42.5 -48q19 11 29.5 18t21 21.5t10.5 31.5q0 20 -14.5 36
t-45.5 16q-25 0 -39.5 -13t-14.5 -31z" />
    <glyph glyph-name="quotesingle" unicode="'" horiz-adv-x="281" 
d="M41 693h198v-118l-32 -145h-134l-32 145v118z" />
    <glyph glyph-name="parenleft" unicode="(" horiz-adv-x="477" 
d="M459 -241h-157q-40 34 -64.5 57t-68 73t-69.5 95t-47 110t-21 131q0 67 19 131t46 111.5t67.5 95.5t72 77t71.5 62h151q-112 -134 -161.5 -235.5t-49.5 -242.5q0 -90 21 -157.5t69 -145.5q66 -105 121 -162z" />
    <glyph glyph-name="parenright" unicode=")" horiz-adv-x="477" 
d="M18 702h157q40 -34 64.5 -57t68 -73t69.5 -95t47 -110t21 -131q0 -67 -19 -131t-46 -111.5t-67.5 -95.5t-72 -77t-71.5 -62h-151q112 134 161.5 235.5t49.5 242.5q0 90 -21 157.5t-69 145.5q-61 100 -121 162z" />
    <glyph glyph-name="asterisk" unicode="*" horiz-adv-x="635" 
d="M370 397l59 -35q113 -67 113 -93q0 -24 -52 -64t-81 -40q-13 0 -20 15q-16 32 -40 117l-19 69q-12 -2 -24 0l-16 -69q-9 -38 -19 -70q-8 -23 -12 -33.5t-12 -19.5t-18 -9q-20 0 -75 39t-55 60q0 20 32 43q35 23 65 45l68 45q-4 7 -7 20l-104 -7q-36 -2 -55 -2
q-21 0 -30.5 1.5t-17.5 9.5t-8 25q0 34 19.5 87.5t41.5 53.5q29 0 112 -70l59 -47q10 9 16 12l-43 116q-21 63 -21 74q0 32 96 32q45 0 68 -10q15 -7 15 -22q0 -30 -28 -102l-36 -88q10 -5 19 -12l76 64q70 59 90 59q27 0 47 -59t20 -88q0 -22 -16.5 -26.5t-72.5 -4.5l-54 1
l-73 3q-2 -12 -7 -20z" />
    <glyph glyph-name="plus" unicode="+" 
d="M56 416h208v208h139v-208h208v-139h-208v-208h-139v208h-208v139z" />
    <glyph glyph-name="comma" unicode="," horiz-adv-x="349" 
d="M8 -181v13q114 52 128 154q-34 10 -58 32q-40 36 -40 92q0 54 38.5 88.5t90.5 34.5q63 0 106.5 -46t43.5 -120q0 -43 -18 -86.5t-53.5 -82t-97.5 -61t-140 -18.5z" />
    <glyph glyph-name="hyphen" unicode="-" horiz-adv-x="445" 
d="M418 365v-181h-391v181h391z" />
    <glyph glyph-name="period" unicode="." horiz-adv-x="318" 
d="M159 244q52 0 89 -36.5t37 -89.5t-37 -89.5t-89 -36.5t-89 37t-37 89t37 89t89 37z" />
    <glyph glyph-name="slash" unicode="/" horiz-adv-x="500" 
d="M299 702h132l-230 -710h-132z" />
    <glyph glyph-name="zero" unicode="0" horiz-adv-x="763" 
d="M31 349q0 60 20 119.5t60 113t110 87t159 33.5q84 0 152.5 -29.5t111.5 -79.5t65.5 -112.5t22.5 -131.5q0 -70 -23.5 -134t-66.5 -114t-111 -80t-151 -30q-108 0 -189 51t-120.5 131t-39.5 176zM263 344q0 -48 11.5 -82.5t26 -51t34.5 -25.5t28.5 -10t17.5 -1
q18 0 35.5 6.5t38 23.5t33 54.5t12.5 91.5q0 53 -14 90t-35.5 52.5t-37.5 21t-31 5.5q-28 0 -53.5 -15.5t-40.5 -41.5q-25 -44 -25 -118z" />
    <glyph glyph-name="one" unicode="1" horiz-adv-x="466" 
d="M385 0h-232v435q-91 -66 -112 -79v191q40 25 108.5 80.5t89.5 74.5h146v-702z" />
    <glyph glyph-name="two" unicode="2" horiz-adv-x="582" 
d="M548 168v-168h-539q149 173 208 261.5t59 157.5q0 44 -31.5 72t-73.5 28q-70 0 -130 -85v181q97 87 211 87q112 0 172.5 -65t60.5 -160q0 -148 -146 -309h209z" />
    <glyph glyph-name="three" unicode="3" horiz-adv-x="483" 
d="M26 43v166q57 -54 123 -54q33 0 54 18.5t21 46.5q0 25 -22 45t-63 20q-24 0 -60 -9v151q22 -2 37 -2q29 0 49.5 6.5t30.5 14t15.5 18.5t6 16t0.5 11q0 24 -20 44.5t-57 20.5q-63 0 -115 -63v166q71 43 172 43q114 0 178.5 -57t64.5 -139q0 -38 -15 -69t-29.5 -45
t-39.5 -32q98 -55 98 -163q0 -21 -5 -44.5t-21 -53.5t-40.5 -53t-67.5 -39t-98 -16q-114 0 -197 52z" />
    <glyph glyph-name="four" unicode="4" horiz-adv-x="741" 
d="M716 285v-143h-133v-142h-232v142h-326v127l378 433h180v-417h133zM200 285h151v171z" />
    <glyph glyph-name="five" unicode="5" horiz-adv-x="530" 
d="M502 693v-159h-159l-31 -126q69 -13 107 -52q53 -55 53 -142q0 -22 -5 -46.5t-22 -57.5t-43.5 -58t-75 -43t-111.5 -18q-91 0 -182 33v166q53 -25 99 -25q43 0 68 18q28 19 28 55q0 34 -29 56.5t-77 22.5q-31 0 -61 -12l98 388h343z" />
    <glyph glyph-name="six" unicode="6" horiz-adv-x="640" 
d="M402 702l189 -116q-125 -37 -212 -109q29 -1 59.5 -8.5t62 -25t55.5 -42.5t39.5 -64t15.5 -86q0 -44 -15.5 -87t-47 -83t-89 -65t-131.5 -25q-75 0 -134 25t-94 67t-52.5 91t-17.5 102q0 90 44.5 178t131 156t196.5 92zM246 250q0 -31 23 -53.5t56 -22.5q29 0 53 22.5
t24 56.5q0 35 -24.5 57t-54.5 22t-53.5 -22t-23.5 -60z" />
    <glyph glyph-name="seven" unicode="7" horiz-adv-x="612" 
d="M313 0h-256l248 523h-259v170h595z" />
    <glyph glyph-name="eight" unicode="8" horiz-adv-x="604" 
d="M126 358q-77 61 -77 138q0 78 67 142t191 64q118 0 184.5 -64t66.5 -142q0 -81 -76 -138q92 -56 92 -157q0 -31 -12 -63.5t-40 -67.5t-84.5 -57t-133.5 -22q-136 0 -204.5 64t-68.5 146q0 22 4.5 44.5t27.5 57t63 55.5zM235 505q0 -27 18.5 -48t49.5 -21t50 21.5t19 47.5
q0 29 -21 48.5t-48 19.5t-47.5 -18.5t-20.5 -49.5zM227 214q0 -34 23.5 -55t53.5 -21t52 23t22 54q0 33 -21.5 54t-53.5 21t-54 -22t-22 -54z" />
    <glyph glyph-name="nine" unicode="9" horiz-adv-x="637" 
d="M261 -9l-232 130v4q124 33 209 115q-105 17 -157 85.5t-52 139.5q0 34 14.5 71.5t45 76.5t89 64t136.5 25q73 0 131.5 -24.5t92.5 -65t51.5 -87.5t17.5 -95q0 -77 -31.5 -148t-84.5 -125.5t-110 -95t-120 -70.5zM391 458q0 32 -21.5 56t-54.5 24t-55 -22.5t-22 -55.5
t21.5 -56t53.5 -23q30 0 54 21t24 56z" />
    <glyph glyph-name="colon" unicode=":" horiz-adv-x="318" 
d="M159 551q52 0 89 -36.5t37 -89.5t-37 -89.5t-89 -36.5t-89 37t-37 89t37 89t89 37zM159 244q52 0 89 -36.5t37 -89.5t-37 -89.5t-89 -36.5t-89 37t-37 89t37 89t89 37z" />
    <glyph glyph-name="semicolon" unicode=";" horiz-adv-x="349" 
d="M174 551q52 0 89 -36.5t37 -89.5t-37 -89.5t-89 -36.5t-89 37t-37 89t37 89t89 37zM8 -181v13q114 52 128 154q-34 10 -58 32q-40 36 -40 92q0 54 38.5 88.5t90.5 34.5q63 0 106.5 -46t43.5 -120q0 -43 -18 -86.5t-53.5 -82t-97.5 -61t-140 -18.5z" />
    <glyph glyph-name="less" unicode="&#x3c;" 
d="M611 55l-555 229v126l555 229v-150l-364 -142l364 -142v-150z" />
    <glyph glyph-name="equal" unicode="=" 
d="M56 535h555v-139h-555v139zM56 298h555v-139h-555v139z" />
    <glyph glyph-name="greater" unicode="&#x3e;" 
d="M56 639l555 -229v-126l-555 -229v150l364 142l-364 142v150z" />
    <glyph glyph-name="question" unicode="?" horiz-adv-x="392" 
d="M16 497l64 188q66 17 100 17q82 0 131.5 -44t49.5 -112q0 -69 -48 -124q-62 -71 -80 -98t-18 -54q0 -24 18 -40q49 -15 70 -48t21 -67q0 -50 -36 -86.5t-90 -36.5q-53 0 -89 35.5t-36 88.5q0 48 33 84q19 21 48 33q-27 46 -27 79q0 27 15 65q17 42 17 62q0 35 -25.5 52
t-54.5 17q-23 0 -63 -11z" />
    <glyph glyph-name="at" unicode="@" horiz-adv-x="1000" 
d="M878 -18h104q-39 -79 -111 -130t-150.5 -70t-170.5 -19q-141 0 -257 45q-127 49 -190 160t-63 240q0 73 18.5 143t58 134t97 112t142 76.5t185.5 28.5q193 0 304 -107.5t111 -266.5q0 -91 -40.5 -172t-115 -132t-164.5 -51q-46 0 -65.5 15t-25.5 41q-60 -56 -134 -56
q-80 0 -133.5 56t-53.5 153q0 51 17.5 106t49 103.5t83.5 79.5t113 31q89 0 130 -66l12 54h129l-74 -350q-7 -33 -7 -43q0 -24 20 -24q45 0 107.5 76.5t62.5 180.5q0 36 -9.5 73t-33 75.5t-59.5 67.5t-95 48t-132 19q-97 0 -173 -30.5t-119 -75t-70.5 -103t-37 -107
t-9.5 -94.5q0 -50 12 -97.5t42.5 -94.5t76 -81.5t118.5 -56t164 -21.5q233 0 336 130zM350 176q0 -58 26.5 -85.5t61.5 -27.5q40 0 71 26.5t47.5 66t25 77.5t8.5 69q0 10 -2.5 23.5t-9.5 36.5t-27.5 38t-50.5 15q-50 0 -86 -42.5t-50 -94.5t-14 -102z" />
    <glyph glyph-name="A" unicode="A" horiz-adv-x="858" 
d="M597 0l-39 107h-257l-41 -107h-252l293 693h257l292 -693h-253zM430 465l-78 -214h154z" />
    <glyph glyph-name="B" unicode="B" horiz-adv-x="733" 
d="M58 0v693h378q94 0 150 -37q35 -24 55 -60.5t20 -76.5q0 -90 -93 -138q53 -20 85.5 -54t42 -64.5t9.5 -63.5q0 -34 -9.5 -63.5t-24.5 -48.5t-24.5 -28.5t-18.5 -15.5q-37 -25 -80.5 -34t-121.5 -9h-368zM304 299v-185h46q111 0 111 92q0 93 -121 93h-36zM304 577v-164h36
q41 0 60 10q41 23 41 71q0 36 -24 61q-23 22 -77 22h-36z" />
    <glyph glyph-name="C" unicode="C" horiz-adv-x="668" 
d="M644 238v-189q-41 -19 -66.5 -29t-71.5 -19t-99 -9q-91 0 -165 30t-120 80t-70.5 112t-24.5 129q0 44 11 89.5t39 95t69.5 87.5t110.5 62.5t155 24.5q120 0 226 -46v-207q-96 68 -189 68q-50 0 -87 -17.5t-55 -45t-26 -54t-8 -51.5q0 -74 52 -122t136 -48q89 0 183 59z
" />
    <glyph glyph-name="D" unicode="D" horiz-adv-x="787" 
d="M58 0v693h298q192 0 297 -97q108 -100 108 -256q0 -98 -49.5 -184.5t-134.5 -124.5q-43 -19 -92 -25t-146 -6h-281zM304 527v-359h34q45 0 75.5 7.5t54.5 32.5q47 49 47 136q0 90 -49 141q-41 42 -135 42h-27z" />
    <glyph glyph-name="E" unicode="E" horiz-adv-x="592" 
d="M567 156v-156h-509v693h504v-156h-258v-108h243v-156h-243v-117h263z" />
    <glyph glyph-name="F" unicode="F" horiz-adv-x="572" 
d="M304 0h-246v693h488v-156h-242v-108h234v-156h-234v-273z" />
    <glyph glyph-name="G" unicode="G" horiz-adv-x="739" 
d="M670 656v-175q-93 58 -188 58q-98 0 -152 -55t-54 -137q0 -27 7.5 -55t26.5 -59t58.5 -50.5t94.5 -19.5q13 0 31 2v80h-71v148h258v-372q-112 -29 -261 -29q-91 0 -162.5 24t-113.5 61t-69.5 85.5t-37.5 92t-10 86.5q0 101 44.5 175.5t111.5 118.5q100 67 259 67
q122 0 228 -46z" />
    <glyph glyph-name="H" unicode="H" horiz-adv-x="858" 
d="M800 0h-246v261h-250v-261h-246v693h246v-249h250v249h246v-693z" />
    <glyph glyph-name="I" unicode="I" horiz-adv-x="383" 
d="M315 0h-246v693h246v-693z" />
    <glyph glyph-name="J" unicode="J" horiz-adv-x="396" 
d="M53 -237l-107 212q16 -2 24 -2q32 0 54 10.5t33 23t16.5 37t6.5 39t1 42.5v568h246v-662q0 -59 -8 -100.5t-33 -79.5q-60 -92 -183 -92q-26 0 -50 4z" />
    <glyph glyph-name="K" unicode="K" horiz-adv-x="834" 
d="M304 0h-246v693h246v-316l247 316h259l-259 -329l264 -364h-292l-219 323v-323z" />
    <glyph glyph-name="L" unicode="L" horiz-adv-x="576" 
d="M561 176v-176h-503v693h246v-517h257z" />
    <glyph glyph-name="M" unicode="M" horiz-adv-x="937" 
d="M879 0h-246v327l-164 -209l-165 213v-331h-246v693h226l185 -239l187 239h223v-693z" />
    <glyph glyph-name="N" unicode="N" horiz-adv-x="878" 
d="M820 0h-214l-302 327v-327h-246v693h212l304 -329v329h246v-693z" />
    <glyph glyph-name="O" unicode="O" horiz-adv-x="784" 
d="M392 -8q-168 0 -266.5 104t-98.5 251q0 64 22.5 125.5t65 113.5t114.5 84t163 32q168 0 266.5 -104t98.5 -251q0 -64 -22.5 -125.5t-65 -113.5t-114.5 -84t-163 -32zM392 198q59 0 89 43.5t30 105.5t-29.5 105.5t-89.5 43.5t-89.5 -43.5t-29.5 -105.5t30 -105.5t89 -43.5
z" />
    <glyph glyph-name="P" unicode="P" horiz-adv-x="698" 
d="M304 0h-246v693h334q123 0 192 -49q86 -63 86 -174q0 -85 -55.5 -140t-119.5 -68q-61 -12 -126 -12h-65v-250zM304 550v-158h23q17 0 27.5 0.5t27.5 5t26.5 12t17 23.5t7.5 39q0 27 -9.5 44.5t-27.5 24t-29.5 8t-30.5 1.5h-32z" />
    <glyph glyph-name="Q" unicode="Q" horiz-adv-x="802" 
d="M815 -6l-182 -153q-89 31 -150 55t-129.5 55t-113.5 59t-89 65t-69 76.5t-40 88.5t-15 105q0 63 22 124.5t65 114.5t116.5 85.5t166.5 32.5q92 0 166.5 -31.5t119.5 -83t68.5 -112.5t23.5 -125q0 -57 -15 -105.5t-43 -85t-45 -54t-42 -38.5q94 -44 185 -73zM524 347
q0 67 -33.5 107.5t-90.5 40.5q-59 0 -90.5 -45.5t-31.5 -104.5t31.5 -104t92.5 -45q57 0 89.5 44t32.5 107z" />
    <glyph glyph-name="R" unicode="R" horiz-adv-x="767" 
d="M304 0h-246v693h336q80 0 126.5 -11.5t83.5 -38.5q72 -52 74 -151q1 -55 -29.5 -97.5t-80.5 -61.5q50 -19 106 -139l91 -194h-244l-43 101q-24 56 -43.5 91.5t-33 55t-31.5 29t-29.5 11.5t-36.5 4v-292zM304 577v-171h21q116 0 116 86q0 29 -11 48t-31 26t-33.5 9
t-32.5 2h-29z" />
    <glyph glyph-name="S" unicode="S" horiz-adv-x="530" 
d="M27 39v186q83 -57 160 -57q41 0 57 14t16 29q0 20 -22 37.5t-96 61.5q-112 67 -112 177q0 98 66.5 156.5t171.5 58.5q121 0 206 -79v-185q-93 88 -161 88q-28 0 -42.5 -13.5t-14.5 -30.5q0 -12 6 -22.5t23.5 -23.5t29.5 -20.5t44 -25.5q28 -16 45.5 -28t44.5 -36.5
t41 -57t14 -70.5q0 -15 -3.5 -35t-19.5 -52t-42.5 -57t-78.5 -43.5t-121 -18.5q-124 0 -212 47z" />
    <glyph glyph-name="T" unicode="T" horiz-adv-x="688" 
d="M467 0h-246v517h-200v176h646v-176h-200v-517z" />
    <glyph glyph-name="U" unicode="U" horiz-adv-x="844" 
d="M547 693h246v-345q0 -168 -81 -252q-99 -104 -292 -104q-186 0 -288 104q-81 82 -81 252v345h246v-301q0 -104 14 -143q25 -71 111 -71q30 0 52.5 8.5t36 27.5t21.5 35.5t11 47t3.5 47t0.5 48.5v301z" />
    <glyph glyph-name="V" unicode="V" horiz-adv-x="784" 
d="M495 0h-199l-286 693h266l141 -356l133 356h224z" />
    <glyph glyph-name="W" unicode="W" horiz-adv-x="1164" 
d="M899 0h-185l-132 379l-132 -379h-183l-257 693h264l96 -294l102 294h221l102 -294l94 294h265z" />
    <glyph glyph-name="X" unicode="X" horiz-adv-x="858" 
d="M852 0h-307l-131 169l-137 -169h-271l274 340l-274 353h308l122 -156l126 156h272l-263 -330z" />
    <glyph glyph-name="Y" unicode="Y" horiz-adv-x="784" 
d="M519 0h-246v309l-263 384h295l116 -174l110 174h243l-255 -384v-309z" />
    <glyph glyph-name="Z" unicode="Z" horiz-adv-x="741" 
d="M717 176v-176h-694l314 517h-324v176h715v-7l-311 -510h300z" />
    <glyph glyph-name="bracketleft" unicode="[" horiz-adv-x="424" 
d="M414 -241h-362v934h362v-123h-151v-688h151v-123z" />
    <glyph glyph-name="backslash" unicode="\" horiz-adv-x="500" 
d="M69 702h132l230 -710h-132z" />
    <glyph glyph-name="bracketright" unicode="]" horiz-adv-x="424" 
d="M10 693h362v-934h-362v123h151v688h-151v123z" />
    <glyph glyph-name="asciicircum" unicode="^" horiz-adv-x="656" 
d="M260 693h136l199 -397h-172l-94 240l-95 -240h-173z" />
    <glyph glyph-name="underscore" unicode="_" horiz-adv-x="500" 
d="M-6 -75h512v-50h-512v50z" />
    <glyph glyph-name="grave" unicode="`" horiz-adv-x="333" 
d="M170 767l93 -166h-112l-201 166h220z" />
    <glyph glyph-name="a" unicode="a" horiz-adv-x="583" 
d="M42 264v183q64 50 123.5 75t133.5 25q135 0 196 -85q31 -44 31 -127v-127q0 -47 11 -61.5t53 -10.5l-50 -146h-46q-46 0 -78 8t-42.5 15.5t-23.5 19.5q-76 -43 -156 -43q-46 0 -80 11.5t-50 26t-25.5 34.5t-10.5 29.5t-1 17.5q0 99 161 151q95 30 124 45v15q0 12 -1 18.5
t-5 14.5t-15 11.5t-29 3.5q-93 0 -220 -104zM312 144v69q-7 -4 -20 -10t-18 -8.5t-14.5 -7t-13 -7t-10 -7t-9 -7t-6 -7t-4.5 -8.5t-2 -9t-1 -11q0 -23 15 -35t34 -12q20 0 53 18q-4 13 -4 42z" />
    <glyph glyph-name="b" unicode="b" horiz-adv-x="665" 
d="M51 702h214v-176q58 21 108 21q106 0 185 -79.5t79 -198.5q0 -52 -15 -96t-39.5 -73.5t-48 -47.5t-47.5 -29q-51 -23 -170 -23h-266v702zM265 363v-183q30 -5 46 -5q34 0 57.5 10t34.5 26.5t15.5 31t4.5 30.5q0 41 -26.5 69t-79.5 28q-19 0 -52 -7z" />
    <glyph glyph-name="c" unicode="c" horiz-adv-x="511" 
d="M488 198v-176q-75 -32 -155 -32q-135 0 -220 83t-85 196q0 46 17 92t51 89t96 70t141 27q74 0 151 -25v-182q-56 32 -113 32q-53 0 -91 -29t-38 -74q0 -41 33.5 -70.5t94.5 -29.5q33 0 55 6t63 23z" />
    <glyph glyph-name="d" unicode="d" horiz-adv-x="665" 
d="M400 702h214v-702h-253q-90 0 -150.5 17.5t-108.5 70.5q-74 81 -74 195q0 116 75.5 190t198.5 74q50 0 98 -15v170zM400 182v177q-26 13 -61 13q-42 0 -69.5 -28.5t-27.5 -70.5q0 -45 29 -71.5t74 -26.5q17 0 55 7z" />
    <glyph glyph-name="e" unicode="e" horiz-adv-x="586" 
d="M559 180v-140q-116 -50 -230 -50q-80 0 -141 27t-94.5 70.5t-49.5 90.5t-16 95q0 123 78.5 198.5t190.5 75.5q96 0 164 -56t87 -128q13 -52 11 -124h-325q4 -37 22 -60q35 -45 117 -45q91 0 186 46zM234 323h131q-1 52 -21.5 71t-44.5 19q-62 0 -65 -90z" />
    <glyph glyph-name="f" unicode="f" horiz-adv-x="424" 
d="M308 0h-214v336h-72v134h72q0 32 1.5 54t13 59t32.5 60t64 41t104 18q50 0 93 -12v-139q-27 8 -42 8q-35 0 -47 -33q-5 -13 -5 -56h79v-134h-79v-336z" />
    <glyph glyph-name="g" unicode="g" horiz-adv-x="583" 
d="M565 547v-115h-75q32 -50 32 -98q0 -116 -125 -178q-57 -27 -71 -36.5t-14 -25.5q0 -12 10.5 -17.5t50.5 -14.5q43 -10 62 -15t41.5 -15t37.5 -24q37 -37 37 -83q0 -65 -69 -115.5t-221 -50.5q-130 0 -187 39.5t-57 87.5q0 81 135 114q-58 23 -58 68q0 47 68 83
q-124 60 -124 181q0 37 12.5 70t33 55.5t36.5 35.5t32 22q58 32 175 32h238zM278 408q-31 0 -50 -20t-19 -48q0 -32 21.5 -52t51.5 -20q29 0 50.5 19.5t21.5 51.5q0 30 -22 49.5t-54 19.5zM244 -52q-44 -27 -44 -56q0 -4 1.5 -9t6.5 -13t14 -14t25.5 -10.5t38.5 -4.5
q30 0 53.5 12t23.5 36q0 28 -46 41q-5 2 -36.5 9.5t-36.5 8.5z" />
    <glyph glyph-name="h" unicode="h" horiz-adv-x="657" 
d="M262 0h-214v702h214v-234q82 75 162 75q65 0 107 -35.5t61 -88.5q17 -47 17 -134v-285h-214v265q0 23 -1 35.5t-6 30.5t-17.5 26.5t-32.5 8.5q-41 0 -76 -53v-313z" />
    <glyph glyph-name="i" unicode="i" horiz-adv-x="337" 
d="M276 0h-214v537h214v-537zM184 704q30 0 47.5 -20.5t17.5 -45.5q0 -29 -20 -48.5t-47 -19.5t-47 19.5t-20 47.5q0 27 19.5 47t49.5 20z" />
    <glyph glyph-name="j" unicode="j" horiz-adv-x="331" 
d="M269 537v-555q0 -29 -1.5 -46t-8 -46t-24 -53t-45.5 -44q-47 -34 -124 -34l-103 162q26 1 44 8.5t27.5 17.5t14 29t5.5 33t1 39v489h214zM178 704q30 0 47.5 -20.5t17.5 -45.5q0 -29 -20 -48.5t-47 -19.5t-47 19.5t-20 47.5q0 27 19.5 47t49.5 20z" />
    <glyph glyph-name="k" unicode="k" horiz-adv-x="721" 
d="M276 0h-214v702h214v-342l155 177h255l-201 -227l236 -310h-263l-182 237v-237z" />
    <glyph glyph-name="l" unicode="l" horiz-adv-x="337" 
d="M276 0h-214v702h214v-702z" />
    <glyph glyph-name="m" unicode="m" horiz-adv-x="1003" 
d="M263 0h-214v537h214v-79q67 86 162 86q42 0 87 -23t67 -68q34 30 54.5 45.5t57.5 30.5t77 15q67 0 107 -33.5t58 -73.5q22 -50 22 -144v-293h-214v265q0 19 -0.5 29t-3.5 26.5t-8.5 25t-17 15.5t-28.5 7q-35 0 -74 -39v-329h-214v258q0 25 -1 39t-6 33.5t-17.5 28.5
t-32.5 9q-35 0 -75 -48v-320z" />
    <glyph glyph-name="n" unicode="n" horiz-adv-x="657" 
d="M263 0h-214v537h214v-75q71 82 164 82q51 0 98 -30.5t69 -93.5q15 -42 15 -142v-278h-214v266q0 21 -1 33.5t-5.5 31.5t-17 28t-31.5 9q-44 0 -77 -53v-315z" />
    <glyph glyph-name="o" unicode="o" horiz-adv-x="657" 
d="M629 270q0 -67 -33 -129.5t-104 -106.5t-164 -44t-163.5 44t-103.5 106.5t-33 128.5q0 48 19.5 96.5t56 89.5t95.5 66.5t130 25.5q70 0 128.5 -25t95 -65.5t56.5 -89t20 -97.5zM415 268q0 48 -25.5 76t-61.5 28q-35 0 -60.5 -28t-25.5 -76q0 -49 25.5 -76t60.5 -27
q36 0 61.5 27t25.5 76z" />
    <glyph glyph-name="p" unicode="p" 
d="M265 -241h-214v778h214v-43q68 53 139 53q105 0 170 -84.5t65 -192.5q0 -72 -28.5 -134t-91.5 -104t-149 -42q-49 0 -105 18v-249zM265 360v-174q29 -16 63 -16q42 0 69.5 30t27.5 74q0 41 -24 73.5t-67 32.5q-29 0 -69 -20z" />
    <glyph glyph-name="q" unicode="q" horiz-adv-x="665" 
d="M614 -241h-214v250q-62 -19 -104 -19q-111 0 -190 76.5t-79 194.5q0 84 36 143t83 89q71 44 192 44h276v-778zM400 175v182q-22 5 -45 5q-56 0 -87 -29q-27 -25 -27 -70q0 -46 30.5 -70t73.5 -24q10 0 55 6z" />
    <glyph glyph-name="r" unicode="r" horiz-adv-x="535" 
d="M276 0h-214v537h214v-115q61 122 151 122q54 0 117 -44l-93 -209q-43 42 -83 42q-92 0 -92 -197v-136z" />
    <glyph glyph-name="s" unicode="s" horiz-adv-x="487" 
d="M36 35v156q91 -68 152 -68q18 0 31.5 7.5t13.5 23.5q0 18 -15.5 30t-76.5 47q-20 11 -32.5 20t-32 27t-29.5 44.5t-10 58.5q0 71 57.5 118.5t150.5 47.5q83 0 183 -50v-147q-66 51 -125 51q-49 0 -49 -27q0 -10 3.5 -17t13 -14t18.5 -12t28.5 -14.5t34.5 -18.5
q47 -27 73 -58.5t26 -83.5q0 -16 -3 -32.5t-16 -42t-35 -44.5t-64.5 -33t-99.5 -14q-64 0 -106 11t-91 34z" />
    <glyph glyph-name="t" unicode="t" horiz-adv-x="530" 
d="M89 403h-76v82l242 217h48v-165h161v-134h-161v-135q0 -26 1.5 -38.5t7.5 -28.5t22 -23t42 -7q48 0 99 35v-163q-71 -53 -177 -53q-145 0 -192 94q-17 34 -17 111v208z" />
    <glyph glyph-name="u" unicode="u" horiz-adv-x="677" 
d="M45 537h214v-274q0 -20 0.5 -30t3 -25.5t8 -23.5t16.5 -14t27 -6q20 0 41.5 13t35.5 32v328h214v-324q0 -23 1 -33t6.5 -24t19.5 -18t37 -1l-52 -147h-81q-35 0 -57 4t-46.5 25.5t-34.5 62.5q-25 -27 -42 -42t-55.5 -32.5t-80.5 -17.5q-67 0 -105 34.5t-54 79.5
q-16 44 -16 135v298z" />
    <glyph glyph-name="v" unicode="v" horiz-adv-x="614" 
d="M405 537h193l-202 -537h-174l-206 537h223l84 -218z" />
    <glyph glyph-name="w" unicode="w" horiz-adv-x="913" 
d="M356 0h-137l-203 537h224l79 -225l81 225h118l81 -225l74 225h224l-195 -537h-137l-106 267z" />
    <glyph glyph-name="x" unicode="x" horiz-adv-x="657" 
d="M646 0h-256l-79 112l-78 -112h-215l192 256l-199 281h256l77 -109l77 109h213l-189 -252z" />
    <glyph glyph-name="y" unicode="y" horiz-adv-x="646" 
d="M269 -241h-199l147 318l-197 460h227l88 -204l94 204h198z" />
    <glyph glyph-name="z" unicode="z" horiz-adv-x="593" 
d="M39 371v166h542v-5l-227 -366h213v-166h-554l233 371h-207z" />
    <glyph glyph-name="braceleft" unicode="{" horiz-adv-x="385" 
d="M378 702v-161q-63 0 -78 -22.5t-16 -106.5q-1 -50 -7.5 -84t-20 -53t-25.5 -27.5t-34 -17.5q31 -14 47.5 -30t28 -55t11.5 -106q0 -79 16 -98.5t78 -20.5v-161h-62q-101 0 -146 27q-64 37 -64 153l2 94q0 39 -9 63.5t-26.5 34t-29 11.5t-31.5 3v169q61 0 78 32.5
t17 104.5q0 43 1 66.5t4.5 55t11.5 47.5t22.5 34.5t36.5 27t54 14.5t75 6h66z" />
    <glyph glyph-name="bar" unicode="|" horiz-adv-x="317" 
d="M88 750h141v-1000h-141v1000z" />
    <glyph glyph-name="braceright" unicode="}" horiz-adv-x="385" 
d="M7 702h66q120 0 162.5 -45t42.5 -168q0 -77 1.5 -97t10.5 -37q21 -41 83 -41v-169q-20 -1 -31.5 -3t-29 -11.5t-26.5 -34t-9 -63.5l2 -95q0 -115 -67 -154q-42 -25 -143 -25h-62v161q42 1 59.5 7t26 29t8.5 76q0 98 18.5 136.5t68.5 61.5q-29 13 -44 25t-28.5 51
t-14.5 106q-1 84 -15.5 106.5t-78.5 22.5v161z" />
    <glyph glyph-name="asciitilde" unicode="~" 
d="M56 241v142q82 72 164 72q50 0 135 -42q72 -36 109 -36q66 0 147 75v-141q-82 -72 -157 -72q-31 0 -60 9t-83 36q-66 33 -101 33q-77 0 -154 -76z" />
    <glyph glyph-name="uni00A0" unicode="&#xa0;" horiz-adv-x="300" 
 />
    <glyph glyph-name="exclamdown" unicode="&#xa1;" horiz-adv-x="318" 
d="M193 299q90 -177 90 -292q0 -72 -30.5 -121t-87.5 -49q-58 0 -94 49t-36 128q0 49 17 107.5t31.5 90.5t42.5 87q-38 11 -60.5 38t-28 47t-5.5 37q0 50 35 88t92 38q52 0 89.5 -36.5t37.5 -89.5q0 -36 -21 -71.5t-72 -50.5z" />
    <glyph glyph-name="cent" unicode="&#xa2;" horiz-adv-x="511" 
d="M484 522v-182q-56 32 -113 32q-53 0 -91 -29t-38 -74q0 -41 33.5 -70.5t94.5 -29.5q33 0 55 6t63 23v-176q-73 -32 -154 -32q-20 0 -36 2l-53 -179h-72l56 192q-88 28 -144.5 99.5t-56.5 164.5q0 46 17 92t51 89t96 70t141 27q24 0 57 -3l34 117h73l-39 -131q4 -1 26 -8z
" />
    <glyph glyph-name="sterling" unicode="&#xa3;" horiz-adv-x="582" 
d="M476 423v-139h-136q-16 -45 -32 -115h245l-28 -169h-493q50 194 82 284h-82v139h126q16 46 31.5 80t41.5 74t55.5 65.5t74 42.5t96.5 17q19 0 47 -6l63 -171q-32 6 -55 6q-50 0 -79 -26.5t-49 -81.5h92z" />
    <glyph glyph-name="currency" unicode="&#xa4;" 
d="M62 528l89 91l69 -69q56 31 113 31q58 0 114 -31l68 69l90 -91l-68 -68q30 -57 30 -115q0 -60 -30 -111l68 -67l-90 -91l-68 68q-56 -31 -117 -31q-60 0 -110 31l-66 -68l-92 91l68 67q-31 55 -31 116q0 60 31 110zM333 455q-45 0 -76.5 -31.5t-31.5 -76.5t31.5 -76.5
t76.5 -31.5t76.5 31.5t31.5 76.5t-31.5 76.5t-76.5 31.5z" />
    <glyph glyph-name="yen" unicode="&#xa5;" horiz-adv-x="784" 
d="M273 227v82h-212v67h166l-217 317h295l116 -174l110 174h243l-210 -317h161v-67h-206v-82h206v-67h-206v-160h-246v160h-212v67h212z" />
    <glyph glyph-name="brokenbar" unicode="&#xa6;" horiz-adv-x="317" 
d="M88 175h141v-350h-141v350zM88 675h141v-350h-141v350z" />
    <glyph glyph-name="section" unicode="&#xa7;" horiz-adv-x="635" 
d="M106 434q-33 48 -33 101q0 47 21 81t57 52t77 26t88 8q121 0 182.5 -44t61.5 -94q0 -35 -24.5 -54.5t-58.5 -19.5q-7 0 -16.5 1.5t-25 6.5t-28 18t-17.5 32q-5 17 -8.5 25t-19 16t-42.5 8q-40 0 -60.5 -13.5t-20.5 -34.5q0 -27 27 -44t132 -61q48 -20 81 -39t64.5 -47.5
t47.5 -67t16 -86.5q0 -109 -74 -171q33 -43 33 -98q0 -42 -18.5 -75.5t-46.5 -52.5q-70 -48 -197 -48q-115 0 -174.5 40.5t-59.5 90.5q0 32 25 54.5t69 22.5q31 0 49.5 -11t24 -21.5t11.5 -31.5q3 -12 7 -18.5t19 -13.5t40 -7q84 0 84 51q0 39 -85 74q-139 60 -188.5 92.5
t-78.5 97.5q-19 42 -19 90q0 96 78 165zM189 351q-16 -23 -16 -43q0 -22 11.5 -41t34.5 -34t36 -22t36 -18q87 -39 111 -51t50 -31q16 34 16 51q0 39 -42.5 67t-135.5 69q-57 26 -101 53z" />
    <glyph glyph-name="dieresis" unicode="&#xa8;" horiz-adv-x="333" 
d="M-30 673q0 29 21 50.5t51 21.5q29 0 50.5 -21t21.5 -51t-21.5 -51t-50.5 -21q-30 0 -51 21.5t-21 50.5zM219 673q0 30 21.5 51t50.5 21q30 0 51 -21t21 -51t-21 -51t-51 -21q-29 0 -50.5 21t-21.5 51z" />
    <glyph glyph-name="copyright" unicode="&#xa9;" horiz-adv-x="802" 
d="M488 283l100 -24q-6 -18 -10 -28.5t-19 -34.5t-33 -38.5t-50.5 -26.5t-72.5 -12q-96 0 -149.5 61t-53.5 150q0 92 58.5 150t145.5 58q63 0 114.5 -34t65.5 -101l-96 -15q-19 79 -89 79q-45 0 -67.5 -37.5t-22.5 -97.5q0 -142 91 -142q67 0 88 93zM401 702
q154 0 263.5 -109t109.5 -264t-109 -264t-264 -109t-264 109t-109 264t109.5 264t263.5 109zM401 630q-124 0 -212.5 -88t-88.5 -213t88 -213t213 -88t213 88t88 213t-88.5 213t-212.5 88z" />
    <glyph glyph-name="ordfeminine" unicode="&#xaa;" horiz-adv-x="381" 
d="M23 526v126q68 50 163 50q161 0 161 -133v-78q0 -14 1 -20.5t7 -11.5t19 -5q2 0 4 0.5t6 1t8 0.5l-38 -102h-34q-62 0 -93 25q-43 -25 -102 -25q-47 0 -79.5 19t-32.5 59q0 65 106 97l79 24v7.5v7.5t-1 5.5t-3 5t-6 2.5t-10 2.5t-14 0.5q-60 0 -141 -58zM198 432v51
q-31 -12 -41.5 -18.5t-10.5 -19.5q0 -21 26 -21q10 0 26 8z" />
    <glyph glyph-name="guillemotleft" unicode="&#xab;" horiz-adv-x="657" 
d="M643 0h-186l-153 269l153 268h186l-154 -268zM356 0h-186l-153 269l153 268h186l-154 -268z" />
    <glyph glyph-name="logicalnot" unicode="&#xac;" 
d="M56 535h555v-376h-139v237h-416v139z" />
    <glyph glyph-name="uni00AD" unicode="&#xad;" horiz-adv-x="445" 
d="M418 365v-181h-391v181h391z" />
    <glyph glyph-name="registered" unicode="&#xae;" horiz-adv-x="802" 
d="M578 128h-100l-33 64q-24 47 -45.5 69.5t-34.5 26t-37 3.5h-15v-163h-81v397h141q45 -1 63.5 -2t40 -6t35.5 -16q42 -31 42 -88q0 -39 -25.5 -71.5t-81.5 -40.5q26 -10 40 -26.5t44 -67.5zM313 463v-110h32q69 0 84 5q39 11 39 50q0 28 -23 43q-13 9 -29 10.5t-71 1.5
h-32zM401 702q154 0 263.5 -109t109.5 -264t-109 -264t-264 -109t-264 109t-109 264t109.5 264t263.5 109zM401 630q-124 0 -212.5 -88t-88.5 -213t88 -213t213 -88t213 88t88 213t-88.5 213t-212.5 88z" />
    <glyph glyph-name="macron" unicode="&#xaf;" horiz-adv-x="333" 
d="M-28 601v104h389v-104h-389z" />
    <glyph glyph-name="degree" unicode="&#xb0;" horiz-adv-x="396" 
d="M198 693q58 0 99 -40.5t41 -98.5t-41 -99t-99 -41t-98.5 41t-40.5 99t40.5 98.5t98.5 40.5zM199 603q-20 0 -35 -14.5t-15 -34.5t15 -35t35 -15t34.5 15t14.5 35t-14.5 34.5t-34.5 14.5z" />
    <glyph glyph-name="plusminus" unicode="&#xb1;" 
d="M56 503h208v208h139v-208h208v-139h-208v-208h-139v208h-208v139zM56 108h555v-139h-555v139z" />
    <glyph glyph-name="two.superior" unicode="&#xb2;" horiz-adv-x="455" 
d="M392 438v-98h-340q96 94 132 137t36 77q0 17 -14 30t-40 13q-22 0 -40 -10.5t-45 -37.5v106q24 17 37.5 24.5t38.5 15t55 7.5q68 0 105.5 -34t37.5 -84q0 -68 -75 -146h112z" />
    <glyph glyph-name="three.superior" unicode="&#xb3;" horiz-adv-x="455" 
d="M93 364v100q41 -33 78 -33q16 0 27.5 7t11.5 18q0 4 -2.5 9t-13.5 10.5t-29 5.5q-16 0 -41 -6v91q82 -5 82 24q0 11 -11.5 18.5t-26.5 7.5q-19 0 -34.5 -7t-22.5 -13.5t-18 -19.5v103q46 23 104 23q83 0 118 -33.5t35 -70.5q0 -20 -8 -35.5t-15 -22t-20 -14.5
q51 -31 51 -80q0 -45 -37 -77q-38 -33 -106 -33q-70 0 -122 28z" />
    <glyph glyph-name="acute" unicode="&#xb4;" horiz-adv-x="333" 
d="M70 601l93 166h220l-201 -166h-112z" />
    <glyph glyph-name="mu" unicode="&#xb5;" 
d="M249 -9v-187h-204v733h214v-274q0 -20 0.5 -30t3 -25.5t8 -23.5t16.5 -14t27 -6q20 0 41.5 13t35.5 32v328h214v-537h-207v82q-83 -91 -149 -91z" />
    <glyph glyph-name="paragraph" unicode="&#xb6;" horiz-adv-x="573" 
d="M310 -219h-118v511q-49 4 -85.5 20.5t-56 38t-31.5 49.5t-15.5 48.5t-3.5 40.5q0 49 20 96.5t60 71.5q41 25 75.5 30.5t105.5 5.5h312v-127h-55v-785h-118v785h-90v-785z" />
    <glyph glyph-name="periodcentered" unicode="&#xb7;" horiz-adv-x="318" 
d="M159 473q52 0 89 -36.5t37 -89.5t-37 -89.5t-89 -36.5t-89 37t-37 89t37 89t89 37z" />
    <glyph glyph-name="cedilla" unicode="&#xb8;" horiz-adv-x="333" 
d="M0 -236v79q13 -1 31.5 0t36 3.5t29.5 12t12 24.5q0 34 -59 34l66 85l104 6l-28 -42q53 -4 78.5 -30t25.5 -61q0 -38 -23.5 -63.5t-60 -35.5t-61.5 -13.5t-48 -3.5q-56 0 -103 5z" />
    <glyph glyph-name="one.superior" unicode="&#xb9;" horiz-adv-x="455" 
d="M306 340h-148v211q-36 -18 -66 -38v110q38 21 121 79h93v-362z" />
    <glyph glyph-name="ordmasculine" unicode="&#xba;" horiz-adv-x="424" 
d="M413 527q0 -66 -54.5 -119.5t-146.5 -53.5t-146.5 53.5t-54.5 119.5q0 67 54.5 121t146.5 54t146.5 -54t54.5 -121zM262 528q0 26 -14.5 40.5t-35.5 14.5q-20 0 -35 -14.5t-15 -40.5t15 -40.5t35 -14.5q21 0 35.5 14t14.5 41z" />
    <glyph glyph-name="guillemotright" unicode="&#xbb;" horiz-adv-x="657" 
d="M14 537h186l153 -269l-153 -268h-186l154 268zM301 537h186l153 -269l-153 -268h-186l154 268z" />
    <glyph glyph-name="onequarter" unicode="&#xbc;" horiz-adv-x="1038" 
d="M964 155v-84h-79v-71h-148v71h-193v73l227 218h114v-207h79zM670 155h67v64zM306 340h-148v211q-36 -18 -66 -38v110q38 21 121 79h93v-362zM353 -8h-165l406 710h165z" />
    <glyph glyph-name="onehalf" unicode="&#xbd;" horiz-adv-x="1038" 
d="M306 340h-148v211q-36 -18 -66 -38v110q38 21 121 79h93v-362zM925 98v-98h-340q96 94 132 137t36 77q0 17 -14 30t-40 13q-22 0 -40 -10.5t-45 -37.5v106q24 17 37.5 24.5t38.5 15t55 7.5q68 0 105.5 -34t37.5 -84q0 -68 -75 -146h112zM353 -8h-165l406 710h165z" />
    <glyph glyph-name="threequarters" unicode="&#xbe;" horiz-adv-x="1038" 
d="M78 364v100q41 -33 78 -33q16 0 27.5 7t11.5 18q0 4 -2.5 9t-13.5 10.5t-29 5.5q-16 0 -41 -6v91q82 -5 82 24q0 11 -11.5 18.5t-26.5 7.5q-19 0 -34.5 -7t-22.5 -13.5t-18 -19.5v103q46 23 104 23q83 0 118 -33.5t35 -70.5q0 -20 -8 -35.5t-15 -22t-20 -14.5
q51 -31 51 -80q0 -45 -37 -77q-38 -33 -106 -33q-70 0 -122 28zM353 -8h-165l406 710h165zM964 155v-84h-79v-71h-148v71h-193v73l227 218h114v-207h79zM670 155h67v64z" />
    <glyph glyph-name="questiondown" unicode="&#xbf;" horiz-adv-x="392" 
d="M376 42l-64 -188q-66 -17 -100 -17q-82 0 -131.5 44t-49.5 112q0 69 48 124q62 71 80 98t18 54q0 24 -18 40q-49 15 -70 48t-21 67q0 50 36 86.5t90 36.5q53 0 89 -35.5t36 -88.5q0 -48 -33 -84q-19 -21 -48 -33q27 -46 27 -79q0 -27 -15 -65q-17 -42 -17 -62
q0 -35 25.5 -52t54.5 -17q23 0 63 11z" />
    <glyph glyph-name="Agrave" unicode="&#xc0;" horiz-adv-x="858" 
d="M597 0l-39 107h-257l-41 -107h-252l293 693h257l292 -693h-253zM430 465l-78 -214h154zM453 905l93 -166h-112l-201 166h220z" />
    <glyph glyph-name="Aacute" unicode="&#xc1;" horiz-adv-x="858" 
d="M597 0l-39 107h-257l-41 -107h-252l293 693h257l292 -693h-253zM430 465l-78 -214h154zM333 739l93 166h220l-201 -166h-112z" />
    <glyph glyph-name="Acircumflex" unicode="&#xc2;" horiz-adv-x="858" 
d="M597 0l-39 107h-257l-41 -107h-252l293 693h257l292 -693h-253zM430 465l-78 -214h154zM552 909l75 -170h-124l-74 80l-74 -80h-123l76 170h244z" />
    <glyph glyph-name="Atilde" unicode="&#xc3;" horiz-adv-x="858" 
d="M597 0l-39 107h-257l-41 -107h-252l293 693h257l292 -693h-253zM430 465l-78 -214h154zM535 907h92q-2 -59 -20 -99q-33 -69 -104 -69q-23 0 -98 25q-31 11 -46 11q-28 0 -36 -36h-91q9 169 127 169q28 0 71 -16q49 -20 71 -20q30 0 34 35z" />
    <glyph glyph-name="Adieresis" unicode="&#xc4;" horiz-adv-x="858" 
d="M597 0l-39 107h-257l-41 -107h-252l293 693h257l292 -693h-253zM430 465l-78 -214h154zM233 811q0 29 21 50.5t51 21.5q29 0 50.5 -21t21.5 -51t-21.5 -51t-50.5 -21q-30 0 -51 21.5t-21 50.5zM482 811q0 30 21.5 51t50.5 21q30 0 51 -21t21 -51t-21 -51t-51 -21
q-29 0 -50.5 21t-21.5 51z" />
    <glyph glyph-name="Aring" unicode="&#xc5;" horiz-adv-x="858" 
d="M597 0l-39 107h-257l-41 -107h-252l293 693h257l292 -693h-253zM430 465l-78 -214h154zM328 840q0 43 30 72.5t72 29.5t71.5 -30t29.5 -72q0 -41 -30 -71t-71 -30q-42 0 -72 29.5t-30 71.5zM382 840q0 -20 14 -33.5t34 -13.5t33.5 13.5t13.5 33.5t-13.5 34t-33.5 14
t-34 -14t-14 -34z" />
    <glyph glyph-name="AE" unicode="&#xc6;" horiz-adv-x="1053" 
d="M1028 156v-156h-511v201h-168l-88 -201h-253l332 693h684v-156h-261v-108h244v-156h-244v-117h265zM415 350h102v233z" />
    <glyph glyph-name="Ccedilla" unicode="&#xc7;" horiz-adv-x="668" 
d="M459 -6l-20 -26q49 -1 77 -29.5t28 -62.5q0 -23 -13.5 -45.5t-32.5 -35.5q-56 -36 -164 -36q-49 0 -87 6v81q8 -1 26 -1q39 0 60.5 11t21.5 27q0 6 -2.5 13t-17.5 15.5t-42 6.5l62 76q-100 10 -176 61t-114 126t-38 162q0 44 11 89.5t39 95t69.5 87.5t110.5 62.5
t155 24.5q120 0 226 -46v-207q-96 68 -189 68q-50 0 -87 -17.5t-55 -45t-26 -54t-8 -51.5q0 -74 52 -122t136 -48q89 0 183 59v-189q-60 -27 -95 -38t-90 -17z" />
    <glyph glyph-name="Egrave" unicode="&#xc8;" horiz-adv-x="592" 
d="M567 156v-156h-509v693h504v-156h-258v-108h243v-156h-243v-117h263zM315 905l93 -166h-112l-201 166h220z" />
    <glyph glyph-name="Eacute" unicode="&#xc9;" horiz-adv-x="592" 
d="M567 156v-156h-509v693h504v-156h-258v-108h243v-156h-243v-117h263zM215 739l93 166h220l-201 -166h-112z" />
    <glyph glyph-name="Ecircumflex" unicode="&#xca;" horiz-adv-x="592" 
d="M567 156v-156h-509v693h504v-156h-258v-108h243v-156h-243v-117h263zM434 909l75 -170h-124l-74 80l-74 -80h-123l76 170h244z" />
    <glyph glyph-name="Edieresis" unicode="&#xcb;" horiz-adv-x="592" 
d="M567 156v-156h-509v693h504v-156h-258v-108h243v-156h-243v-117h263zM115 811q0 29 21 50.5t51 21.5q29 0 50.5 -21t21.5 -51t-21.5 -51t-50.5 -21q-30 0 -51 21.5t-21 50.5zM364 811q0 30 21.5 51t50.5 21q30 0 51 -21t21 -51t-21 -51t-51 -21q-29 0 -50.5 21t-21.5 51z
" />
    <glyph glyph-name="Igrave" unicode="&#xcc;" horiz-adv-x="383" 
d="M315 0h-246v693h246v-693zM195 905l93 -166h-112l-201 166h220z" />
    <glyph glyph-name="Iacute" unicode="&#xcd;" horiz-adv-x="383" 
d="M315 0h-246v693h246v-693zM95 739l93 166h220l-201 -166h-112z" />
    <glyph glyph-name="Icircumflex" unicode="&#xce;" horiz-adv-x="383" 
d="M315 0h-246v693h246v-693zM314 909l75 -170h-124l-74 80l-74 -80h-123l76 170h244z" />
    <glyph glyph-name="Idieresis" unicode="&#xcf;" horiz-adv-x="383" 
d="M315 0h-246v693h246v-693zM-5 811q0 29 21 50.5t51 21.5q29 0 50.5 -21t21.5 -51t-21.5 -51t-50.5 -21q-30 0 -51 21.5t-21 50.5zM244 811q0 30 21.5 51t50.5 21q30 0 51 -21t21 -51t-21 -51t-51 -21q-29 0 -50.5 21t-21.5 51z" />
    <glyph glyph-name="Eth" unicode="&#xd0;" horiz-adv-x="787" 
d="M58 295h-43v104h43v294h298q192 0 297 -97q108 -100 108 -256q0 -98 -49.5 -184.5t-134.5 -124.5q-43 -19 -92 -25t-146 -6h-281v295zM406 295h-102v-127h34q45 0 75.5 7.5t54.5 32.5q47 49 47 136q0 90 -49 141q-41 42 -135 42h-27v-128h102v-104z" />
    <glyph glyph-name="Ntilde" unicode="&#xd1;" horiz-adv-x="878" 
d="M820 0h-214l-302 327v-327h-246v693h212l304 -329v329h246v-693zM560 907h92q-2 -59 -20 -99q-33 -69 -104 -69q-23 0 -98 25q-31 11 -46 11q-28 0 -36 -36h-91q9 169 127 169q28 0 71 -16q49 -20 71 -20q30 0 34 35z" />
    <glyph glyph-name="Ograve" unicode="&#xd2;" horiz-adv-x="784" 
d="M392 -8q-168 0 -266.5 104t-98.5 251q0 64 22.5 125.5t65 113.5t114.5 84t163 32q168 0 266.5 -104t98.5 -251q0 -64 -22.5 -125.5t-65 -113.5t-114.5 -84t-163 -32zM392 198q59 0 89 43.5t30 105.5t-29.5 105.5t-89.5 43.5t-89.5 -43.5t-29.5 -105.5t30 -105.5t89 -43.5
zM396 905l93 -166h-112l-201 166h220z" />
    <glyph glyph-name="Oacute" unicode="&#xd3;" horiz-adv-x="784" 
d="M392 -8q-168 0 -266.5 104t-98.5 251q0 64 22.5 125.5t65 113.5t114.5 84t163 32q168 0 266.5 -104t98.5 -251q0 -64 -22.5 -125.5t-65 -113.5t-114.5 -84t-163 -32zM392 198q59 0 89 43.5t30 105.5t-29.5 105.5t-89.5 43.5t-89.5 -43.5t-29.5 -105.5t30 -105.5t89 -43.5
zM296 739l93 166h220l-201 -166h-112z" />
    <glyph glyph-name="Ocircumflex" unicode="&#xd4;" horiz-adv-x="784" 
d="M392 -8q-168 0 -266.5 104t-98.5 251q0 64 22.5 125.5t65 113.5t114.5 84t163 32q168 0 266.5 -104t98.5 -251q0 -64 -22.5 -125.5t-65 -113.5t-114.5 -84t-163 -32zM392 198q59 0 89 43.5t30 105.5t-29.5 105.5t-89.5 43.5t-89.5 -43.5t-29.5 -105.5t30 -105.5t89 -43.5
zM515 909l75 -170h-124l-74 80l-74 -80h-123l76 170h244z" />
    <glyph glyph-name="Otilde" unicode="&#xd5;" horiz-adv-x="784" 
d="M392 -8q-168 0 -266.5 104t-98.5 251q0 64 22.5 125.5t65 113.5t114.5 84t163 32q168 0 266.5 -104t98.5 -251q0 -64 -22.5 -125.5t-65 -113.5t-114.5 -84t-163 -32zM392 198q59 0 89 43.5t30 105.5t-29.5 105.5t-89.5 43.5t-89.5 -43.5t-29.5 -105.5t30 -105.5t89 -43.5
zM498 907h92q-2 -59 -20 -99q-33 -69 -104 -69q-23 0 -98 25q-31 11 -46 11q-28 0 -36 -36h-91q9 169 127 169q28 0 71 -16q49 -20 71 -20q30 0 34 35z" />
    <glyph glyph-name="Odieresis" unicode="&#xd6;" horiz-adv-x="784" 
d="M392 -8q-168 0 -266.5 104t-98.5 251q0 64 22.5 125.5t65 113.5t114.5 84t163 32q168 0 266.5 -104t98.5 -251q0 -64 -22.5 -125.5t-65 -113.5t-114.5 -84t-163 -32zM392 198q59 0 89 43.5t30 105.5t-29.5 105.5t-89.5 43.5t-89.5 -43.5t-29.5 -105.5t30 -105.5t89 -43.5
zM196 811q0 29 21 50.5t51 21.5q29 0 50.5 -21t21.5 -51t-21.5 -51t-50.5 -21q-30 0 -51 21.5t-21 50.5zM445 811q0 30 21.5 51t50.5 21q30 0 51 -21t21 -51t-21 -51t-51 -21q-29 0 -50.5 21t-21.5 51z" />
    <glyph glyph-name="multiply" unicode="&#xd7;" 
d="M68 179l167 168l-167 167l98 98l167 -167l168 167l98 -98l-167 -167l167 -168l-98 -98l-168 167l-167 -167z" />
    <glyph glyph-name="Oslash" unicode="&#xd8;" horiz-adv-x="784" 
d="M505 402l-184 -179q25 -25 71 -25q62 0 90.5 45t28.5 104q0 11 -1 20t-2.5 18.5t-2.5 16.5zM280 290l184 182q-32 24 -70 24q-63 0 -92 -43.5t-29 -105.5q0 -22 7 -57zM161 65l-95 -94l-53 55l93 92q-80 104 -79 229q0 64 22.5 125.5t65 113.5t114.5 84t163 32
q132 0 231 -72l74 72l57 -52l-76 -75q79 -93 79 -228q0 -64 -22.5 -125.5t-65 -113.5t-114.5 -84t-163 -32q-134 0 -231 73z" />
    <glyph glyph-name="Ugrave" unicode="&#xd9;" horiz-adv-x="844" 
d="M547 693h246v-345q0 -168 -81 -252q-99 -104 -292 -104q-186 0 -288 104q-81 82 -81 252v345h246v-301q0 -104 14 -143q25 -71 111 -71q30 0 52.5 8.5t36 27.5t21.5 35.5t11 47t3.5 47t0.5 48.5v301zM426 905l93 -166h-112l-201 166h220z" />
    <glyph glyph-name="Uacute" unicode="&#xda;" horiz-adv-x="844" 
d="M547 693h246v-345q0 -168 -81 -252q-99 -104 -292 -104q-186 0 -288 104q-81 82 -81 252v345h246v-301q0 -104 14 -143q25 -71 111 -71q30 0 52.5 8.5t36 27.5t21.5 35.5t11 47t3.5 47t0.5 48.5v301zM326 739l93 166h220l-201 -166h-112z" />
    <glyph glyph-name="Ucircumflex" unicode="&#xdb;" horiz-adv-x="844" 
d="M547 693h246v-345q0 -168 -81 -252q-99 -104 -292 -104q-186 0 -288 104q-81 82 -81 252v345h246v-301q0 -104 14 -143q25 -71 111 -71q30 0 52.5 8.5t36 27.5t21.5 35.5t11 47t3.5 47t0.5 48.5v301zM545 909l75 -170h-124l-74 80l-74 -80h-123l76 170h244z" />
    <glyph glyph-name="Udieresis" unicode="&#xdc;" horiz-adv-x="844" 
d="M547 693h246v-345q0 -168 -81 -252q-99 -104 -292 -104q-186 0 -288 104q-81 82 -81 252v345h246v-301q0 -104 14 -143q25 -71 111 -71q30 0 52.5 8.5t36 27.5t21.5 35.5t11 47t3.5 47t0.5 48.5v301zM226 811q0 29 21 50.5t51 21.5q29 0 50.5 -21t21.5 -51t-21.5 -51
t-50.5 -21q-30 0 -51 21.5t-21 50.5zM475 811q0 30 21.5 51t50.5 21q30 0 51 -21t21 -51t-21 -51t-51 -21q-29 0 -50.5 21t-21.5 51z" />
    <glyph glyph-name="Yacute" unicode="&#xdd;" horiz-adv-x="784" 
d="M519 0h-246v309l-263 384h295l116 -174l110 174h243l-255 -384v-309zM296 739l93 166h220l-201 -166h-112z" />
    <glyph glyph-name="Thorn" unicode="&#xde;" horiz-adv-x="698" 
d="M304 0h-246v693h246v-125h88q123 0 192 -49q86 -61 86 -174q0 -85 -55.5 -140t-119.5 -68q-61 -12 -126 -12h-65v-125zM304 425v-158h23q17 0 27.5 0.5t27.5 5t26.5 12t17 23.5t7.5 39q0 27 -9.5 44.5t-27.5 24t-29.5 8t-30.5 1.5h-32z" />
    <glyph glyph-name="germandbls" unicode="&#xdf;" horiz-adv-x="679" 
d="M265 0h-214v463q0 26 1 41.5t5.5 40t16.5 46t32 39.5q77 72 223 72q115 0 185 -38q40 -22 66 -60t26 -83q0 -50 -35 -90q-16 -19 -51 -34q49 -14 79.5 -48t39.5 -67.5t9 -71.5q0 -101 -60 -160.5t-154 -59.5q-44 0 -102 10v164q27 -3 31 -3q41 0 58.5 23.5t17.5 58.5
q0 89 -100 84v131q38 -1 53.5 18.5t15.5 44.5q0 31 -19 50.5t-51 19.5q-21 0 -35.5 -8t-22 -17.5t-11 -28.5t-4 -30.5t-0.5 -32.5v-474z" />
    <glyph glyph-name="agrave" unicode="&#xe0;" horiz-adv-x="583" 
d="M42 264v183q64 50 123.5 75t133.5 25q135 0 196 -85q31 -44 31 -127v-127q0 -47 11 -61.5t53 -10.5l-50 -146h-46q-46 0 -78 8t-42.5 15.5t-23.5 19.5q-76 -43 -156 -43q-46 0 -80 11.5t-50 26t-25.5 34.5t-10.5 29.5t-1 17.5q0 99 161 151q95 30 124 45v15q0 12 -1 18.5
t-5 14.5t-15 11.5t-29 3.5q-93 0 -220 -104zM312 144v69q-7 -4 -20 -10t-18 -8.5t-14.5 -7t-13 -7t-10 -7t-9 -7t-6 -7t-4.5 -8.5t-2 -9t-1 -11q0 -23 15 -35t34 -12q20 0 53 18q-4 13 -4 42zM295 767l93 -166h-112l-201 166h220z" />
    <glyph glyph-name="aacute" unicode="&#xe1;" horiz-adv-x="583" 
d="M42 264v183q64 50 123.5 75t133.5 25q135 0 196 -85q31 -44 31 -127v-127q0 -47 11 -61.5t53 -10.5l-50 -146h-46q-46 0 -78 8t-42.5 15.5t-23.5 19.5q-76 -43 -156 -43q-46 0 -80 11.5t-50 26t-25.5 34.5t-10.5 29.5t-1 17.5q0 99 161 151q95 30 124 45v15q0 12 -1 18.5
t-5 14.5t-15 11.5t-29 3.5q-93 0 -220 -104zM312 144v69q-7 -4 -20 -10t-18 -8.5t-14.5 -7t-13 -7t-10 -7t-9 -7t-6 -7t-4.5 -8.5t-2 -9t-1 -11q0 -23 15 -35t34 -12q20 0 53 18q-4 13 -4 42zM210 601l93 166h220l-201 -166h-112z" />
    <glyph glyph-name="acircumflex" unicode="&#xe2;" horiz-adv-x="583" 
d="M42 264v183q64 50 123.5 75t133.5 25q135 0 196 -85q31 -44 31 -127v-127q0 -47 11 -61.5t53 -10.5l-50 -146h-46q-46 0 -78 8t-42.5 15.5t-23.5 19.5q-76 -43 -156 -43q-46 0 -80 11.5t-50 26t-25.5 34.5t-10.5 29.5t-1 17.5q0 99 161 151q95 30 124 45v15q0 12 -1 18.5
t-5 14.5t-15 11.5t-29 3.5q-93 0 -220 -104zM312 144v69q-7 -4 -20 -10t-18 -8.5t-14.5 -7t-13 -7t-10 -7t-9 -7t-6 -7t-4.5 -8.5t-2 -9t-1 -11q0 -23 15 -35t34 -12q20 0 53 18q-4 13 -4 42zM414 771l75 -170h-124l-74 80l-74 -80h-123l76 170h244z" />
    <glyph glyph-name="atilde" unicode="&#xe3;" horiz-adv-x="583" 
d="M42 264v183q64 50 123.5 75t133.5 25q135 0 196 -85q31 -44 31 -127v-127q0 -47 11 -61.5t53 -10.5l-50 -146h-46q-46 0 -78 8t-42.5 15.5t-23.5 19.5q-76 -43 -156 -43q-46 0 -80 11.5t-50 26t-25.5 34.5t-10.5 29.5t-1 17.5q0 99 161 151q95 30 124 45v15q0 12 -1 18.5
t-5 14.5t-15 11.5t-29 3.5q-93 0 -220 -104zM312 144v69q-7 -4 -20 -10t-18 -8.5t-14.5 -7t-13 -7t-10 -7t-9 -7t-6 -7t-4.5 -8.5t-2 -9t-1 -11q0 -23 15 -35t34 -12q20 0 53 18q-4 13 -4 42zM397 769h92q-2 -59 -20 -99q-33 -69 -104 -69q-23 0 -98 25q-31 11 -46 11
q-28 0 -36 -36h-91q9 169 127 169q28 0 71 -16q49 -20 71 -20q30 0 34 35z" />
    <glyph glyph-name="adieresis" unicode="&#xe4;" horiz-adv-x="583" 
d="M42 264v183q64 50 123.5 75t133.5 25q135 0 196 -85q31 -44 31 -127v-127q0 -47 11 -61.5t53 -10.5l-50 -146h-46q-46 0 -78 8t-42.5 15.5t-23.5 19.5q-76 -43 -156 -43q-46 0 -80 11.5t-50 26t-25.5 34.5t-10.5 29.5t-1 17.5q0 99 161 151q95 30 124 45v15q0 12 -1 18.5
t-5 14.5t-15 11.5t-29 3.5q-93 0 -220 -104zM312 144v69q-7 -4 -20 -10t-18 -8.5t-14.5 -7t-13 -7t-10 -7t-9 -7t-6 -7t-4.5 -8.5t-2 -9t-1 -11q0 -23 15 -35t34 -12q20 0 53 18q-4 13 -4 42zM95 673q0 29 21 50.5t51 21.5q29 0 50.5 -21t21.5 -51t-21.5 -51t-50.5 -21
q-30 0 -51 21.5t-21 50.5zM344 673q0 30 21.5 51t50.5 21q30 0 51 -21t21 -51t-21 -51t-51 -21q-29 0 -50.5 21t-21.5 51z" />
    <glyph glyph-name="aring" unicode="&#xe5;" horiz-adv-x="583" 
d="M42 264v183q64 50 123.5 75t133.5 25q135 0 196 -85q31 -44 31 -127v-127q0 -47 11 -61.5t53 -10.5l-50 -146h-46q-46 0 -78 8t-42.5 15.5t-23.5 19.5q-76 -43 -156 -43q-46 0 -80 11.5t-50 26t-25.5 34.5t-10.5 29.5t-1 17.5q0 99 161 151q95 30 124 45v15q0 12 -1 18.5
t-5 14.5t-15 11.5t-29 3.5q-93 0 -220 -104zM312 144v69q-7 -4 -20 -10t-18 -8.5t-14.5 -7t-13 -7t-10 -7t-9 -7t-6 -7t-4.5 -8.5t-2 -9t-1 -11q0 -23 15 -35t34 -12q20 0 53 18q-4 13 -4 42zM190 702q0 43 30 72.5t72 29.5t71.5 -30t29.5 -72q0 -41 -30 -71t-71 -30
q-42 0 -72 29.5t-30 71.5zM244 702q0 -20 14 -33.5t34 -13.5t33.5 13.5t13.5 33.5t-13.5 34t-33.5 14t-34 -14t-14 -34z" />
    <glyph glyph-name="ae" unicode="&#xe6;" horiz-adv-x="858" 
d="M41 265v185q115 97 251 97q88 0 152 -36q69 36 138 36q103 0 176.5 -72t73.5 -206v-30h-311q1 -18 4.5 -30.5t15 -31.5t40 -29.5t72.5 -10.5q84 0 179 45v-141q-89 -51 -229 -51t-224 59q-87 -59 -190 -59q-70 0 -116 31t-46 89q0 98 138 144q120 40 146 53q0 19 -1 27
t-5.5 18.5t-16 14t-30.5 3.5q-63 0 -141 -50q-43 -28 -76 -55zM311 177v37q-4 -2 -30 -14.5t-32 -15.5q-36 -19 -36 -51q0 -23 14 -35t34 -12q23 0 56 18q-6 23 -6 73zM521 323h124q-1 20 -2.5 30t-7 27t-19 25t-33.5 8q-25 0 -39 -15.5t-18 -32.5t-5 -42z" />
    <glyph glyph-name="ccedilla" unicode="&#xe7;" horiz-adv-x="511" 
d="M374 -8l-21 -36q28 -6 45 -19q31 -24 31 -67q0 -47 -45 -79t-147 -32q-21 0 -69 3v71q96 -3 96 41q0 5 -1 11t-12 15.5t-30 9.5l52 85q-96 13 -170.5 88.5t-74.5 185.5q0 46 17 92t51 89t96 70t141 27q74 0 151 -25v-182q-56 32 -113 32q-53 0 -91 -29t-38 -74
q0 -41 33.5 -70.5t94.5 -29.5q33 0 55 6t63 23v-176q-52 -24 -114 -30z" />
    <glyph glyph-name="egrave" unicode="&#xe8;" horiz-adv-x="586" 
d="M559 180v-140q-116 -50 -230 -50q-80 0 -141 27t-94.5 70.5t-49.5 90.5t-16 95q0 123 78.5 198.5t190.5 75.5q96 0 164 -56t87 -128q13 -52 11 -124h-325q4 -37 22 -60q35 -45 117 -45q91 0 186 46zM234 323h131q-1 52 -21.5 71t-44.5 19q-62 0 -65 -90zM317 767l93 -166
h-112l-201 166h220z" />
    <glyph glyph-name="eacute" unicode="&#xe9;" horiz-adv-x="586" 
d="M559 180v-140q-116 -50 -230 -50q-80 0 -141 27t-94.5 70.5t-49.5 90.5t-16 95q0 123 78.5 198.5t190.5 75.5q96 0 164 -56t87 -128q13 -52 11 -124h-325q4 -37 22 -60q35 -45 117 -45q91 0 186 46zM234 323h131q-1 52 -21.5 71t-44.5 19q-62 0 -65 -90zM197 601l93 166
h220l-201 -166h-112z" />
    <glyph glyph-name="ecircumflex" unicode="&#xea;" horiz-adv-x="586" 
d="M559 180v-140q-116 -50 -230 -50q-80 0 -141 27t-94.5 70.5t-49.5 90.5t-16 95q0 123 78.5 198.5t190.5 75.5q96 0 164 -56t87 -128q13 -52 11 -124h-325q4 -37 22 -60q35 -45 117 -45q91 0 186 46zM234 323h131q-1 52 -21.5 71t-44.5 19q-62 0 -65 -90zM431 771l75 -170
h-124l-74 80l-74 -80h-123l76 170h244z" />
    <glyph glyph-name="edieresis" unicode="&#xeb;" horiz-adv-x="586" 
d="M559 180v-140q-116 -50 -230 -50q-80 0 -141 27t-94.5 70.5t-49.5 90.5t-16 95q0 123 78.5 198.5t190.5 75.5q96 0 164 -56t87 -128q13 -52 11 -124h-325q4 -37 22 -60q35 -45 117 -45q91 0 186 46zM234 323h131q-1 52 -21.5 71t-44.5 19q-62 0 -65 -90zM112 673
q0 29 21 50.5t51 21.5q29 0 50.5 -21t21.5 -51t-21.5 -51t-50.5 -21q-30 0 -51 21.5t-21 50.5zM361 673q0 30 21.5 51t50.5 21q30 0 51 -21t21 -51t-21 -51t-51 -21q-29 0 -50.5 21t-21.5 51z" />
    <glyph glyph-name="igrave" unicode="&#xec;" horiz-adv-x="337" 
d="M276 0h-214v537h214v-537zM172 767l93 -166h-112l-201 166h220z" />
    <glyph glyph-name="iacute" unicode="&#xed;" horiz-adv-x="337" 
d="M276 0h-214v537h214v-537zM72 601l93 166h220l-201 -166h-112z" />
    <glyph glyph-name="icircumflex" unicode="&#xee;" horiz-adv-x="337" 
d="M276 0h-214v537h214v-537zM291 771l75 -170h-124l-74 80l-74 -80h-123l76 170h244z" />
    <glyph glyph-name="idieresis" unicode="&#xef;" horiz-adv-x="337" 
d="M276 0h-214v537h214v-537zM-28 673q0 29 21 50.5t51 21.5q29 0 50.5 -21t21.5 -51t-21.5 -51t-50.5 -21q-30 0 -51 21.5t-21 50.5zM221 673q0 30 21.5 51t50.5 21q30 0 51 -21t21 -51t-21 -51t-51 -21q-29 0 -50.5 21t-21.5 51z" />
    <glyph glyph-name="eth" unicode="&#xf0;" horiz-adv-x="649" 
d="M242 271q0 -47 24 -75.5t63 -28.5q43 0 64.5 32t21.5 74q0 43 -25 72t-62 29q-39 0 -62.5 -30.5t-23.5 -72.5zM591 645l-111 -24q71 -76 106 -163.5t35 -168.5q0 -138 -86 -224q-73 -75 -200 -75q-63 0 -115.5 17.5t-87 46t-59 65.5t-35 75.5t-10.5 76.5q0 110 76.5 181
t170.5 71q32 0 58 -7q-15 28 -42 65l-122 -26l-11 57l93 20q-14 17 -34 33l175 37q19 -13 39 -32l149 32z" />
    <glyph glyph-name="ntilde" unicode="&#xf1;" horiz-adv-x="657" 
d="M263 0h-214v537h214v-75q71 82 164 82q51 0 98 -30.5t69 -93.5q15 -42 15 -142v-278h-214v266q0 21 -1 33.5t-5.5 31.5t-17 28t-31.5 9q-44 0 -77 -53v-315zM434 769h92q-2 -59 -20 -99q-33 -69 -104 -69q-23 0 -98 25q-31 11 -46 11q-28 0 -36 -36h-91q9 169 127 169
q28 0 71 -16q49 -20 71 -20q30 0 34 35z" />
    <glyph glyph-name="ograve" unicode="&#xf2;" horiz-adv-x="657" 
d="M629 270q0 -67 -33 -129.5t-104 -106.5t-164 -44t-163.5 44t-103.5 106.5t-33 128.5q0 48 19.5 96.5t56 89.5t95.5 66.5t130 25.5q70 0 128.5 -25t95 -65.5t56.5 -89t20 -97.5zM415 268q0 48 -25.5 76t-61.5 28q-35 0 -60.5 -28t-25.5 -76q0 -49 25.5 -76t60.5 -27
q36 0 61.5 27t25.5 76zM332 767l93 -166h-112l-201 166h220z" />
    <glyph glyph-name="oacute" unicode="&#xf3;" horiz-adv-x="657" 
d="M629 270q0 -67 -33 -129.5t-104 -106.5t-164 -44t-163.5 44t-103.5 106.5t-33 128.5q0 48 19.5 96.5t56 89.5t95.5 66.5t130 25.5q70 0 128.5 -25t95 -65.5t56.5 -89t20 -97.5zM415 268q0 48 -25.5 76t-61.5 28q-35 0 -60.5 -28t-25.5 -76q0 -49 25.5 -76t60.5 -27
q36 0 61.5 27t25.5 76zM232 601l93 166h220l-201 -166h-112z" />
    <glyph glyph-name="ocircumflex" unicode="&#xf4;" horiz-adv-x="657" 
d="M629 270q0 -67 -33 -129.5t-104 -106.5t-164 -44t-163.5 44t-103.5 106.5t-33 128.5q0 48 19.5 96.5t56 89.5t95.5 66.5t130 25.5q70 0 128.5 -25t95 -65.5t56.5 -89t20 -97.5zM415 268q0 48 -25.5 76t-61.5 28q-35 0 -60.5 -28t-25.5 -76q0 -49 25.5 -76t60.5 -27
q36 0 61.5 27t25.5 76zM451 771l75 -170h-124l-74 80l-74 -80h-123l76 170h244z" />
    <glyph glyph-name="otilde" unicode="&#xf5;" horiz-adv-x="657" 
d="M629 270q0 -67 -33 -129.5t-104 -106.5t-164 -44t-163.5 44t-103.5 106.5t-33 128.5q0 48 19.5 96.5t56 89.5t95.5 66.5t130 25.5q70 0 128.5 -25t95 -65.5t56.5 -89t20 -97.5zM415 268q0 48 -25.5 76t-61.5 28q-35 0 -60.5 -28t-25.5 -76q0 -49 25.5 -76t60.5 -27
q36 0 61.5 27t25.5 76zM434 769h92q-2 -59 -20 -99q-33 -69 -104 -69q-23 0 -98 25q-31 11 -46 11q-28 0 -36 -36h-91q9 169 127 169q28 0 71 -16q49 -20 71 -20q30 0 34 35z" />
    <glyph glyph-name="odieresis" unicode="&#xf6;" horiz-adv-x="657" 
d="M629 270q0 -67 -33 -129.5t-104 -106.5t-164 -44t-163.5 44t-103.5 106.5t-33 128.5q0 48 19.5 96.5t56 89.5t95.5 66.5t130 25.5q70 0 128.5 -25t95 -65.5t56.5 -89t20 -97.5zM415 268q0 48 -25.5 76t-61.5 28q-35 0 -60.5 -28t-25.5 -76q0 -49 25.5 -76t60.5 -27
q36 0 61.5 27t25.5 76zM132 673q0 29 21 50.5t51 21.5q29 0 50.5 -21t21.5 -51t-21.5 -51t-50.5 -21q-30 0 -51 21.5t-21 50.5zM381 673q0 30 21.5 51t50.5 21q30 0 51 -21t21 -51t-21 -51t-51 -21q-29 0 -50.5 21t-21.5 51z" />
    <glyph glyph-name="divide" unicode="&#xf7;" 
d="M334 637q34 0 57.5 -23.5t23.5 -57.5t-23.5 -58t-57.5 -24t-58 24t-24 58t24 57.5t58 23.5zM56 416h555v-139h-555v139zM333 219q34 0 58 -23.5t24 -57.5t-24 -58t-58 -24t-57.5 24t-23.5 58t23.5 57.5t57.5 23.5z" />
    <glyph glyph-name="oslash" unicode="&#xf8;" horiz-adv-x="657" 
d="M164 33l-77 -82l-59 57l73 77q-73 82 -73 184q0 48 19.5 96.5t56 89.5t95.5 66.5t130 25.5q94 0 166 -44l77 82l56 -60l-70 -75q71 -79 71 -180q0 -49 -20 -97.5t-56.5 -90t-95 -67t-129.5 -25.5q-86 0 -164 43zM422 306l-135 -143q19 -10 42 -10q40 0 69 30.5t29 85.5
q0 19 -5 37zM235 228l138 145q-18 11 -44 11q-46 0 -72.5 -31t-26.5 -84q0 -21 5 -41z" />
    <glyph glyph-name="ugrave" unicode="&#xf9;" horiz-adv-x="677" 
d="M45 537h214v-274q0 -20 0.5 -30t3 -25.5t8 -23.5t16.5 -14t27 -6q20 0 41.5 13t35.5 32v328h214v-324q0 -23 1 -33t6.5 -24t19.5 -18t37 -1l-52 -147h-81q-35 0 -57 4t-46.5 25.5t-34.5 62.5q-25 -27 -42 -42t-55.5 -32.5t-80.5 -17.5q-67 0 -105 34.5t-54 79.5
q-16 44 -16 135v298zM342 767l93 -166h-112l-201 166h220z" />
    <glyph glyph-name="uacute" unicode="&#xfa;" horiz-adv-x="677" 
d="M45 537h214v-274q0 -20 0.5 -30t3 -25.5t8 -23.5t16.5 -14t27 -6q20 0 41.5 13t35.5 32v328h214v-324q0 -23 1 -33t6.5 -24t19.5 -18t37 -1l-52 -147h-81q-35 0 -57 4t-46.5 25.5t-34.5 62.5q-25 -27 -42 -42t-55.5 -32.5t-80.5 -17.5q-67 0 -105 34.5t-54 79.5
q-16 44 -16 135v298zM242 601l93 166h220l-201 -166h-112z" />
    <glyph glyph-name="ucircumflex" unicode="&#xfb;" horiz-adv-x="677" 
d="M45 537h214v-274q0 -20 0.5 -30t3 -25.5t8 -23.5t16.5 -14t27 -6q20 0 41.5 13t35.5 32v328h214v-324q0 -23 1 -33t6.5 -24t19.5 -18t37 -1l-52 -147h-81q-35 0 -57 4t-46.5 25.5t-34.5 62.5q-25 -27 -42 -42t-55.5 -32.5t-80.5 -17.5q-67 0 -105 34.5t-54 79.5
q-16 44 -16 135v298zM461 771l75 -170h-124l-74 80l-74 -80h-123l76 170h244z" />
    <glyph glyph-name="udieresis" unicode="&#xfc;" horiz-adv-x="677" 
d="M45 537h214v-274q0 -20 0.5 -30t3 -25.5t8 -23.5t16.5 -14t27 -6q20 0 41.5 13t35.5 32v328h214v-324q0 -23 1 -33t6.5 -24t19.5 -18t37 -1l-52 -147h-81q-35 0 -57 4t-46.5 25.5t-34.5 62.5q-25 -27 -42 -42t-55.5 -32.5t-80.5 -17.5q-67 0 -105 34.5t-54 79.5
q-16 44 -16 135v298zM142 673q0 29 21 50.5t51 21.5q29 0 50.5 -21t21.5 -51t-21.5 -51t-50.5 -21q-30 0 -51 21.5t-21 50.5zM391 673q0 30 21.5 51t50.5 21q30 0 51 -21t21 -51t-21 -51t-51 -21q-29 0 -50.5 21t-21.5 51z" />
    <glyph glyph-name="yacute" unicode="&#xfd;" horiz-adv-x="646" 
d="M269 -241h-199l147 318l-197 460h227l88 -204l94 204h198zM257 601l93 166h220l-201 -166h-112z" />
    <glyph glyph-name="thorn" unicode="&#xfe;" 
d="M265 -241h-214v943h214v-179q69 24 130 24q115 0 179.5 -78.5t64.5 -192.5q0 -124 -73 -205t-196 -81q-49 0 -105 18v-249zM265 363v-177q29 -16 63 -16q40 0 68.5 29t28.5 78q0 50 -27.5 76.5t-65.5 26.5q-27 0 -67 -17z" />
    <glyph glyph-name="ydieresis" unicode="&#xff;" horiz-adv-x="646" 
d="M269 -241h-199l147 318l-197 460h227l88 -204l94 204h198zM147 673q0 29 21 50.5t51 21.5q29 0 50.5 -21t21.5 -51t-21.5 -51t-50.5 -21q-30 0 -51 21.5t-21 50.5zM396 673q0 30 21.5 51t50.5 21q30 0 51 -21t21 -51t-21 -51t-51 -21q-29 0 -50.5 21t-21.5 51z" />
    <glyph glyph-name="dotlessi" unicode="&#x131;" horiz-adv-x="337" 
d="M276 0h-214v537h214v-537z" />
    <glyph glyph-name="Lslash" unicode="&#x141;" horiz-adv-x="576" 
d="M304 372v-196h257v-176h-503v212l-50 -37v126l50 37v355h246v-195l146 111v-126z" />
    <glyph glyph-name="lslash" unicode="&#x142;" horiz-adv-x="337" 
d="M276 390v-390h-214v243l-45 -35v91l45 35v368h214v-220l44 34v-92z" />
    <glyph glyph-name="OE" unicode="&#x152;" horiz-adv-x="1050" 
d="M1025 156v-156h-595q-40 0 -69 2.5t-77.5 11.5t-92 33t-78.5 62q-86 95 -86 239q0 109 47.5 183.5t110.5 110.5q88 51 245 51h591v-156h-260v-108h244v-156h-244v-117h264zM515 156v381h-16q-81 0 -131 -24q-37 -17 -60 -50.5t-29 -61t-6 -55.5q0 -40 11 -71.5t26.5 -51
t41 -33.5t44 -20.5t47.5 -9.5t40.5 -3.5t31.5 -0.5z" />
    <glyph glyph-name="oe" unicode="&#x153;" horiz-adv-x="999" 
d="M973 174v-141q-119 -43 -237 -43q-130 0 -213 63q-79 -63 -192 -63q-137 0 -220 83.5t-83 194.5q0 119 88.5 199t215.5 80q107 0 184 -63q76 63 184 63q123 0 198 -80t75 -203v-25h-344q9 -107 152 -107q84 0 192 42zM629 323h146q-7 90 -72 90q-11 0 -21.5 -3t-23 -11.5
t-20.5 -28t-9 -47.5zM415 268q0 48 -25.5 76t-61.5 28q-35 0 -60.5 -28t-25.5 -76q0 -49 25.5 -76t60.5 -27q36 0 61.5 27t25.5 76z" />
    <glyph glyph-name="Scaron" unicode="&#x160;" horiz-adv-x="530" 
d="M27 39v186q83 -57 160 -57q41 0 57 14t16 29q0 20 -22 37.5t-96 61.5q-112 67 -112 177q0 98 66.5 156.5t171.5 58.5q121 0 206 -79v-185q-93 88 -161 88q-28 0 -42.5 -13.5t-14.5 -30.5q0 -12 6 -22.5t23.5 -23.5t29.5 -20.5t44 -25.5q28 -16 45.5 -28t44.5 -36.5
t41 -57t14 -70.5q0 -15 -3.5 -35t-19.5 -52t-42.5 -57t-78.5 -43.5t-121 -18.5q-124 0 -212 47zM143 739l-75 170h124l74 -80l74 80h123l-75 -170h-245z" />
    <glyph glyph-name="scaron" unicode="&#x161;" horiz-adv-x="487" 
d="M36 35v156q91 -68 152 -68q18 0 31.5 7.5t13.5 23.5q0 18 -15.5 30t-76.5 47q-20 11 -32.5 20t-32 27t-29.5 44.5t-10 58.5q0 71 57.5 118.5t150.5 47.5q83 0 183 -50v-147q-66 51 -125 51q-49 0 -49 -27q0 -10 3.5 -17t13 -14t18.5 -12t28.5 -14.5t34.5 -18.5
q47 -27 73 -58.5t26 -83.5q0 -16 -3 -32.5t-16 -42t-35 -44.5t-64.5 -33t-99.5 -14q-64 0 -106 11t-91 34zM121 601l-75 170h124l74 -80l74 80h123l-75 -170h-245z" />
    <glyph glyph-name="Ydieresis" unicode="&#x178;" horiz-adv-x="784" 
d="M519 0h-246v309l-263 384h295l116 -174l110 174h243l-255 -384v-309zM211 811q0 29 21 50.5t51 21.5q29 0 50.5 -21t21.5 -51t-21.5 -51t-50.5 -21q-30 0 -51 21.5t-21 50.5zM460 811q0 30 21.5 51t50.5 21q30 0 51 -21t21 -51t-21 -51t-51 -21q-29 0 -50.5 21t-21.5 51z
" />
    <glyph glyph-name="Zcaron" unicode="&#x17d;" horiz-adv-x="741" 
d="M717 176v-176h-694l314 517h-324v176h715v-7l-311 -510h300zM248 739l-75 170h124l74 -80l74 80h123l-75 -170h-245z" />
    <glyph glyph-name="zcaron" unicode="&#x17e;" horiz-adv-x="593" 
d="M39 371v166h542v-5l-227 -366h213v-166h-554l233 371h-207zM174 601l-75 170h124l74 -80l74 80h123l-75 -170h-245z" />
    <glyph glyph-name="florin" unicode="&#x192;" horiz-adv-x="540" 
d="M496 475l-21 -134h-76l-56 -394q-4 -26 -7 -41.5t-17.5 -47t-34.5 -50t-59.5 -34t-92.5 -15.5q-56 0 -123 13l19 137q26 -7 39 -7q30 0 40.5 17.5t17.5 68.5l50 353h-74l19 134h74l6 41q4 27 8 44.5t18 46t35.5 46t62 31t94.5 13.5q44 0 114 -12l-20 -136q-26 7 -37 7
q-20 0 -32 -11.5t-14.5 -21.5t-6.5 -30l-3 -18h77z" />
    <glyph glyph-name="circumflex" unicode="&#x2c6;" horiz-adv-x="333" 
d="M289 771l75 -170h-124l-74 80l-74 -80h-123l76 170h244z" />
    <glyph glyph-name="caron" unicode="&#x2c7;" horiz-adv-x="333" 
d="M44 601l-75 170h124l74 -80l74 80h123l-75 -170h-245z" />
    <glyph glyph-name="uni02C9" unicode="&#x2c9;" horiz-adv-x="333" 
d="M-28 601v104h389v-104h-389z" />
    <glyph glyph-name="breve" unicode="&#x2d8;" horiz-adv-x="333" 
d="M265 765h79q-9 -71 -60 -117.5t-118 -46.5q-59 0 -112.5 41.5t-64.5 122.5h79q23 -71 100 -71q44 0 71 26q17 16 26 45z" />
    <glyph glyph-name="dotaccent" unicode="&#x2d9;" horiz-adv-x="333" 
d="M95 673q0 29 21 50.5t51 21.5q29 0 50.5 -21t21.5 -51t-21.5 -51t-50.5 -21q-30 0 -51 21.5t-21 50.5z" />
    <glyph glyph-name="ring" unicode="&#x2da;" horiz-adv-x="333" 
d="M65 702q0 43 30 72.5t72 29.5t71.5 -30t29.5 -72q0 -41 -30 -71t-71 -30q-42 0 -72 29.5t-30 71.5zM119 702q0 -20 14 -33.5t34 -13.5q19 0 33 13.5t14 33.5t-13.5 34t-33.5 14t-34 -14t-14 -34z" />
    <glyph glyph-name="ogonek" unicode="&#x2db;" horiz-adv-x="333" 
d="M69 14h117q-14 -50 -14 -79q0 -83 97 -83q32 0 89 13v-84q-82 -25 -147 -25q-87 0 -131.5 36.5t-44.5 89.5q0 51 34 132z" />
    <glyph glyph-name="tilde" unicode="&#x2dc;" horiz-adv-x="333" 
d="M272 769h92q-2 -59 -20 -99q-33 -69 -104 -69q-23 0 -98 25q-31 11 -46 11q-28 0 -36 -36h-91q9 169 127 169q28 0 71 -16q49 -20 71 -20q30 0 34 35z" />
    <glyph glyph-name="hungarumlaut" unicode="&#x2dd;" horiz-adv-x="333" 
d="M5 601l92 166h220l-201 -166h-111zM265 601l93 166h220l-202 -166h-111z" />
    <glyph glyph-name="uni03A9" unicode="&#x3a9;" horiz-adv-x="918" 
d="M210 142v4q-62 35 -107.5 97.5t-45.5 148.5q0 130 110.5 217t292.5 87t291 -87t109 -220q0 -84 -41 -141t-115 -102v-4h170v-142h-378v112q80 50 120 104.5t40 138.5q0 85 -54 143t-140 58q-84 0 -141 -55.5t-57 -148.5q0 -78 43 -141.5t117 -98.5v-112h-380v142h166z
" />
    <glyph glyph-name="uni03BC" unicode="&#x3bc;" 
d="M249 -9v-187h-204v733h214v-274q0 -20 0.5 -30t3 -25.5t8 -23.5t16.5 -14t27 -6q20 0 41.5 13t35.5 32v328h214v-537h-207v82q-83 -91 -149 -91z" />
    <glyph glyph-name="pi" unicode="&#x3c0;" horiz-adv-x="768" 
d="M737 372h-74v-194q0 -123 13 -178h-200q-20 22 -20 161v211h-125q-1 -98 -19 -212.5t-43 -159.5h-201q25 74 44 185t17 187q-75 0 -111 -9l-18 114q37 39 218 39h537z" />
    <glyph glyph-name="endash" unicode="&#x2013;" horiz-adv-x="500" 
d="M-6 357h512v-165h-512v165z" />
    <glyph glyph-name="emdash" unicode="&#x2014;" horiz-adv-x="1000" 
d="M-6 357h1012v-165h-1012v165z" />
    <glyph glyph-name="quoteleft" unicode="&#x2018;" horiz-adv-x="349" 
d="M323 701v-18q-11 -3 -25 -10t-35.5 -22.5t-36.5 -45.5t-17 -68q31 -7 51 -22.5t27 -35.5t9 -30.5t2 -19.5q0 -50 -36 -87t-90 -37q-55 0 -95.5 41t-40.5 114q0 47 18.5 90.5t53 78t90.5 54.5t125 18z" />
    <glyph glyph-name="quoteright" unicode="&#x2019;" horiz-adv-x="349" 
d="M26 306v18q11 3 25 10t35.5 22.5t36.5 45.5t17 68q-31 7 -51 22.5t-27 35.5t-9 30.5t-2 19.5q0 50 36 87t90 37q55 0 95.5 -41t40.5 -114q0 -47 -18.5 -90.5t-53 -78t-90.5 -54.5t-125 -18z" />
    <glyph glyph-name="quotesinglbase" unicode="&#x201a;" horiz-adv-x="349" 
d="M26 -163v18q11 3 25 10t35.5 22.5t36.5 45.5t17 68q-31 7 -51 22.5t-27 35.5t-9 30.5t-2 19.5q0 50 36 87t90 37q55 0 95.5 -41t40.5 -114q0 -47 -18.5 -90.5t-53 -78t-90.5 -54.5t-125 -18z" />
    <glyph glyph-name="quotedblleft" unicode="&#x201c;" horiz-adv-x="678" 
d="M324 701v-18q-11 -3 -25 -10t-35.5 -22.5t-36.5 -45.5t-17 -68q31 -7 51 -22.5t27 -35.5t9 -30.5t2 -19.5q0 -50 -36 -87t-90 -37q-55 0 -95.5 41t-40.5 114q0 47 18.5 90.5t53 78t90.5 54.5t125 18zM652 701v-18q-11 -3 -25 -10t-35.5 -22.5t-36.5 -45.5t-17 -68
q31 -7 51 -22.5t27 -35.5t9 -30.5t2 -19.5q0 -50 -36 -87t-90 -37q-55 0 -95.5 41t-40.5 114q0 47 18.5 90.5t53 78t90.5 54.5t125 18z" />
    <glyph glyph-name="quotedblright" unicode="&#x201d;" horiz-adv-x="678" 
d="M354 306v18q11 3 25 10t35.5 22.5t36.5 45.5t17 68q-31 7 -51 22.5t-27 35.5t-9 30.5t-2 19.5q0 50 36 87t90 37q55 0 95.5 -41t40.5 -114q0 -47 -18.5 -90.5t-53 -78t-90.5 -54.5t-125 -18zM26 306v18q11 3 25 10t35.5 22.5t36.5 45.5t17 68q-31 7 -51 22.5t-27 35.5
t-9 30.5t-2 19.5q0 50 36 87t90 37q55 0 95.5 -41t40.5 -114q0 -47 -18.5 -90.5t-53 -78t-90.5 -54.5t-125 -18z" />
    <glyph glyph-name="quotedblbase" unicode="&#x201e;" horiz-adv-x="678" 
d="M354 -163v18q11 3 25 10t35.5 22.5t36.5 45.5t17 68q-31 7 -51 22.5t-27 35.5t-9 30.5t-2 19.5q0 50 36 87t90 37q55 0 95.5 -41t40.5 -114q0 -47 -18.5 -90.5t-53 -78t-90.5 -54.5t-125 -18zM26 -163v18q11 3 25 10t35.5 22.5t36.5 45.5t17 68q-31 7 -51 22.5t-27 35.5
t-9 30.5t-2 19.5q0 50 36 87t90 37q55 0 95.5 -41t40.5 -114q0 -47 -18.5 -90.5t-53 -78t-90.5 -54.5t-125 -18z" />
    <glyph glyph-name="dagger" unicode="&#x2020;" horiz-adv-x="587" 
d="M347 458l160 38q20 5 22 5q15 0 21 -14q9 -22 9 -85q0 -45 -5 -64t-22 -19q-7 0 -21 3l-164 39l54 -543q0 -3 1.5 -17t1.5 -15q0 -27 -57 -27h-107q-33 0 -45 5t-12 21q0 3 0.5 5.5t1 10t1.5 17.5l54 543l-164 -39q-14 -3 -20 -3q-18 0 -23 19t-5 67q0 56 6 76
q8 20 23 20q5 0 23 -5l160 -38l-37 198q-2 13 -2 18q0 18 19 23q21 5 74 5q48 0 73 -5q19 -5 19 -22q0 -7 -2 -19z" />
    <glyph glyph-name="daggerdbl" unicode="&#x2021;" horiz-adv-x="600" 
d="M376 231l-29 -177l175 33q14 3 21 3q23 0 23 -36v-102q0 -25 -22 -25q-1 0 -19 2l-178 33l33 -157q2 -10 2 -18q0 -28 -35 -28h-94q-35 0 -35 28q0 7 2 18l33 157l-178 -33q-12 -2 -19 -2q-22 0 -22 25v102q0 36 23 36q7 0 21 -3l175 -33l-30 177l30 176l-175 -33
q-14 -3 -21 -3q-23 0 -23 36v102q0 25 22 25q7 0 19 -2l178 -33l-32 150q-3 12 -3 25q0 28 35 28h94q35 0 35 -28q0 -8 -2 -18l-33 -157l178 33q18 2 19 2q22 0 22 -25v-102q0 -36 -23 -36q-7 0 -21 3l-175 33z" />
    <glyph glyph-name="bullet" unicode="&#x2022;" horiz-adv-x="500" 
d="M250 509q67 0 114.5 -47.5t47.5 -114.5t-47.5 -114.5t-114.5 -47.5t-114.5 47.5t-47.5 114.5t47.5 114.5t114.5 47.5z" />
    <glyph glyph-name="ellipsis" unicode="&#x2026;" horiz-adv-x="1000" 
d="M834 244q52 0 89 -36.5t37 -89.5t-37 -89.5t-89 -36.5t-89 37t-37 89t37 89t89 37zM500 244q52 0 89 -36.5t37 -89.5t-37 -89.5t-89 -36.5t-89 37t-37 89t37 89t89 37zM166 244q52 0 89 -36.5t37 -89.5t-37 -89.5t-89 -36.5t-89 37t-37 89t37 89t89 37z" />
    <glyph glyph-name="perthousand" unicode="&#x2030;" horiz-adv-x="1501" 
d="M164 518q0 -42 19 -59.5t44 -17.5q65 0 65 80q0 33 -15 52t-27 22t-22 3q-4 0 -9.5 -0.5t-16 -5t-18.5 -12.5t-14 -24t-6 -38zM15 520q0 42 20 81.5t70 70t122 30.5q101 0 157.5 -54t56.5 -128q0 -75 -57 -129.5t-157 -54.5q-97 0 -154.5 53.5t-57.5 130.5zM399 -8h-166
l407 710h165zM1209 178q0 -42 19 -59.5t44 -17.5q65 0 65 80q0 33 -15 52t-27 22t-22 3q-4 0 -9.5 -0.5t-16 -5t-18.5 -12.5t-14 -24t-6 -38zM1060 180q0 42 20 81.5t70 70t122 30.5q101 0 157.5 -54t56.5 -128q0 -75 -57 -129.5t-157 -54.5q-97 0 -154.5 53.5t-57.5 130.5z
M746 178q0 -42 19 -59.5t44 -17.5q65 0 65 80q0 33 -15 52t-27 22t-22 3q-4 0 -9.5 -0.5t-16 -5t-18.5 -12.5t-14 -24t-6 -38zM597 180q0 42 20 81.5t70 70t122 30.5q101 0 157.5 -54t56.5 -128q0 -75 -57 -129.5t-157 -54.5q-97 0 -154.5 53.5t-57.5 130.5z" />
    <glyph glyph-name="guilsinglleft" unicode="&#x2039;" horiz-adv-x="370" 
d="M356 0h-186l-153 269l153 268h186l-154 -268z" />
    <glyph glyph-name="guilsinglright" unicode="&#x203a;" horiz-adv-x="370" 
d="M14 537h186l153 -269l-153 -268h-186l154 268z" />
    <glyph glyph-name="fraction" unicode="&#x2044;" horiz-adv-x="127" 
d="M-57 -8h-165l406 710h165z" />
    <glyph glyph-name="Euro" unicode="&#x20ac;" horiz-adv-x="737" 
d="M621 320l-10 -67h-273q53 -79 161 -79q105 0 183 49v-184q-94 -47 -237 -47q-148 0 -239 73.5t-118 187.5h-81l10 67h61q-1 8 -1 23q0 21 1 32h-71l10 67h72q13 50 37.5 93.5t66 82.5t107.5 61.5t150 22.5q128 0 226 -36v-195q-76 49 -189 49q-106 0 -152 -78h306
l-10 -67h-320q-2 -18 -2 -26q0 -11 2 -29h310z" />
    <glyph glyph-name="afii61289" unicode="&#x2113;" horiz-adv-x="691" 
d="M577 234l85 -85q-53 -81 -131.5 -118t-165.5 -37q-90 0 -144.5 33t-80.5 107q0 1 -0.5 3.5t-1.5 3.5q-49 -28 -51 -29l-55 93q29 18 101 62v188q0 298 239 298q100 0 153 -53.5t53 -132.5q0 -90 -60.5 -167t-191.5 -172l2 -11q5 -31 28 -50t60 -19q44 0 86.5 24.5
t74.5 61.5zM326 518v-134q49 44 77 92.5t28 89.5q0 67 -47 67q-25 0 -41.5 -28t-16.5 -87z" />
    <glyph glyph-name="trademark" unicode="&#x2122;" horiz-adv-x="948" 
d="M18 693h391v-94h-139v-303h-115v303h-137v94zM454 693h174l55 -217l58 217h170v-397h-109v281l-75 -281h-90l-74 281v-281h-109v397z" />
    <glyph glyph-name="Omega" unicode="&#x2126;" horiz-adv-x="918" 
d="M210 142v4q-62 35 -107.5 97.5t-45.5 148.5q0 130 110.5 217t292.5 87t291 -87t109 -220q0 -84 -41 -141t-115 -102v-4h170v-142h-378v112q80 50 120 104.5t40 138.5q0 85 -54 143t-140 58q-84 0 -141 -55.5t-57 -148.5q0 -78 43 -141.5t117 -98.5v-112h-380v142h166z
" />
    <glyph glyph-name="estimated" unicode="&#x212e;" horiz-adv-x="857" 
d="M823 337h-639q-6 0 -6 -5v-193q0 -13 9 -22q102 -105 242 -105q152 0 254 117h57q-54 -63 -136 -100t-176 -37q-164 0 -279.5 103.5t-115.5 250.5q0 148 115.5 252t279.5 104t279.5 -104t115.5 -252v-9zM678 362v194q0 14 -10 23q-103 101 -239 101q-139 0 -241 -104
q-10 -9 -10 -24v-190q0 -7 6 -7h490q4 0 4 7z" />
    <glyph glyph-name="partialdiff" unicode="&#x2202;" horiz-adv-x="723" 
d="M114 588l-59 122q109 65 253 65q164 0 269 -107.5t105 -278.5q0 -181 -106.5 -288t-269.5 -107q-69 0 -124 23.5t-87 61t-49 78t-17 78.5q0 108 73.5 183t196.5 75q67 0 114.5 -28t69.5 -60h1v15q0 88 -53 149t-149 61q-87 0 -168 -42zM329 136h1q51 0 88.5 41.5
t44.5 94.5q-6 28 -37.5 55.5t-76.5 27.5q-53 0 -86.5 -34t-33.5 -85q0 -45 28.5 -72.5t71.5 -27.5z" />
    <glyph glyph-name="Delta" unicode="&#x2206;" horiz-adv-x="820" 
d="M23 0v90l265 609h246l263 -609v-90h-774zM243 144h317l-110 280q-36 93 -49 135h-6q-12 -41 -43 -126z" />
    <glyph glyph-name="product" unicode="&#x220f;" horiz-adv-x="876" 
d="M858 528h-122v-622h-194v622h-209v-622h-193v622h-123v155h841v-155z" />
    <glyph glyph-name="summation" unicode="&#x2211;" horiz-adv-x="697" 
d="M683 -94h-662v99l269 283l-253 276v119h618v-155h-341v-4l202 -219l-223 -240v-4h390v-155z" />
    <glyph glyph-name="minus" unicode="&#x2212;" 
d="M56 416h555v-139h-555v139z" />
    <glyph glyph-name="uni2215" unicode="&#x2215;" horiz-adv-x="127" 
d="M-57 -8h-165l406 710h165z" />
    <glyph glyph-name="uni2219" unicode="&#x2219;" horiz-adv-x="318" 
d="M159 473q52 0 89 -36.5t37 -89.5t-37 -89.5t-89 -36.5t-89 37t-37 89t37 89t89 37z" />
    <glyph glyph-name="radical" unicode="&#x221a;" horiz-adv-x="737" 
d="M772 815l-289 -966h-151l-189 421l-85 -35l-32 87l230 95l123 -312q17 -43 30 -84h2q15 61 22 88l198 706h141z" />
    <glyph glyph-name="infinity" unicode="&#x221e;" horiz-adv-x="831" 
d="M784 285v-1q0 -88 -53.5 -140.5t-126.5 -52.5q-112 0 -191 114q-44 -56 -88 -85t-103 -29q-73 0 -125 51.5t-52 134.5q0 84 53.5 137.5t133.5 53.5q108 0 191 -109q1 1 12.5 14t14.5 16.5t15 16t18.5 17t19 14t23 13.5t24.5 9.5t28.5 7t30.5 1.5q73 -1 124 -51.5
t51 -131.5zM232 185h2q59 0 128 89q-21 31 -29 41.5t-26 29t-36 25t-41 6.5q-37 0 -62.5 -26.5t-25.5 -71.5q0 -38 26 -65.5t64 -27.5zM599 376h-1q-26 0 -53 -18.5t-38.5 -32t-36.5 -44.5q42 -57 71.5 -76.5t62.5 -19.5q38 0 60 29t22 63q0 43 -23.5 71t-63.5 28z" />
    <glyph glyph-name="integral" unicode="&#x222b;" horiz-adv-x="445" 
d="M443 841l-17 -111q-28 6 -45 6q-43 0 -62 -30q-24 -35 -24 -154q0 -78 9.5 -217t9.5 -233q0 -126 -39 -191q-51 -90 -168 -90q-65 0 -102 16l21 118q22 -10 51 -10q36 0 56 23q30 36 30 138q0 94 -10 238.5t-10 228.5q0 85 18.5 138.5t57.5 92.5q49 49 150 49
q46 0 74 -12z" />
    <glyph glyph-name="approxequal" unicode="&#x2248;" horiz-adv-x="642" 
d="M539 477l68 -71q-77 -107 -171 -107q-35 0 -62 9.5t-67 30.5q-1 1 -13.5 7.5t-15.5 8t-14 6t-17 6t-15.5 3t-18.5 1.5q-58 0 -119 -72l-66 71q28 43 80.5 74.5t105.5 31.5q62 0 118 -34q38 -23 55.5 -30.5t41.5 -7.5q56 0 110 73zM539 267l68 -70q-78 -107 -173 -107
q-52 0 -127 40q-60 32 -93 32q-36 0 -63 -18.5t-57 -53.5l-66 71q28 43 81 74.5t106 31.5q57 0 116 -33q6 -3 22 -13t24 -14t22 -8t28 -4q31 0 56 17t56 55z" />
    <glyph glyph-name="notequal" unicode="&#x2260;" horiz-adv-x="642" 
d="M483 520l-37 -79h143v-102h-189l-57 -123h246v-101h-293l-56 -121l-83 39l38 82h-142v101h188l57 123h-245v102h291l54 118z" />
    <glyph glyph-name="lessequal" unicode="&#x2264;" horiz-adv-x="642" 
d="M588 137l-534 223v109l533 222v-111l-420 -164v-2l421 -166v-111zM589 -2h-537v105h537v-105z" />
    <glyph glyph-name="greaterequal" unicode="&#x2265;" horiz-adv-x="642" 
d="M54 691l534 -223v-109l-533 -222v111l420 166v2l-421 164v111zM582 -2h-528v105h528v-105z" />
    <glyph glyph-name="lozenge" unicode="&#x25ca;" horiz-adv-x="737" 
d="M688 340l-247 -385h-148l-244 385l244 387h148zM520 337l-134 225q-9 12 -20 35h-2q0 -1 -19 -35l-129 -219l134 -225q12 -19 18 -35h3q2 3 8.5 16t10.5 19z" />
    </font>
</defs>
</svg>
